Filmbol Forum Film İndir 720P v Merhaba Güzel Vatanım (Merhaba Güzel Vatanım) - 2019 - TR - 720P
Merhaba Güzel Vatanım (Merhaba Güzel Vatanım) - 2019 - TR - 720P
BroserBros
Merhaba Güzel Vatanım (Merhaba Güzel Vatanım) - 2019 - TR - 720P
0
123
  • Derecelendirme: 0/5 - 0 oy
  • 1
  • 2
  • 3
  • 4
  • 5
Konuyu Okuyanlar:1 Ziyaretçi
Şuan Online!
Filmin Yayınlanma Tarihi: 2019 
Şuan Online!
BroserBros Kurucu Admin
*******
Admin

Vizyon Tarihi


01 Kasım 2019

imdb puanı


5,1 / 150

süre


99 dakika

Editör Puanı


6,5 / 10

Video Format: Mkv


Matroska (.MKV)

Ses Kodek: AC3


Audio Coding 3 (AC3)

sürüm


x264 | 720P | WEBRip

Boyutlar


1,18 GB



 Merhaba Güzel Vatanım



Merhaba Güzel Vatanım, Nazım Hikmet ile Ahmet Ümit'in gerçek hayat hikayelerinden uyarlanıyor. Cengiz Özkarabekir'in yönetmen koltuğunda oturduğu filmde, Nazım Hikmet'in Moskova'ya uzanan yolculuğunun, Ahmet Ümit'in 1980'li yıllarda Moskova'ya gidişi üzerindeki etkisini ve Ümit'in fırtınalı yaşamına yansımalarını gözler önüne seriyor. Filmde aynı zamanda Nazım Hikmet ve Ahmet Ümit'in zorlu hayat serüvenlerinin edebi kişiliklerinin oluşması üzerindeki etkisi anlatılıyor. Yetkin Dikinciler'in Nazım Hikmet'e, Serkan Altıntaş'ın ise Ahmet Ümit'e hayat verdiği filmin kadrosunda Berna Laçin, Pelin Batu, Umut Beşkırma, Levent Üzümcü, İskender Bağcılar, Mehmet Tokat, Alper Türedi gibi isimler yer alıyor.

Merhaba Güzel Vatanım (2019) (Merhaba Güzel Vatanım) Filmi Imdb'den 150 kişi tarafından oylandı ve 5,1 puan aldı. Bu film için editör puanı 6,5 olarak belirlendi. İyi Seyirler!

Teknik Detaylar

Kod :
General
Unique ID                                : 187329629606476156267891006896113797184 (0x8CEE5FD2FA30BC5056BE4B1E2A154840)
Complete name                            : /root/Desktop/1/Merhaba.Güzel.Vatanım.2019.720p.WEB-DL.x264.Yerli.Filmbol.mkv
Format                                  : Matroska
Format version                          : Version 4 / Version 2
File size                                : 1.18 GiB
Duration                                : 1h 34mn
Overall bit rate                        : 1 786 Kbps
Encoded date                            : UTC 2020-03-30 12:38:32
Writing application                      : mkvmerge v34.0.0 ('Sight and Seen') 64-bit
Writing library                          : libebml v1.3.7 + libmatroska v1.5.0

Video
ID                                      : 1
Format                                  : AVC
Format/Info                              : Advanced Video Codec
Format profile                          : Main@L3.1
Format settings, CABAC                  : Yes
Format settings, ReFrames                : 2 frames
Codec ID                                : V_MPEG4/ISO/AVC
Duration                                : 1h 34mn
Bit rate                                : 1 400 Kbps
Width                                    : 1 280 pixels
Height                                  : 718 pixels
Display aspect ratio                    : 16:9
Frame rate mode                          : Constant
Frame rate                              : 25.000 fps
Color space                              : YUV
Chroma subsampling                      : 4:2:0
Bit depth                                : 8 bits
Scan type                                : Progressive
Bits/(Pixel*Frame)                      : 0.061
Stream size                              : 950 MiB (78%)
Language                                : English
Default                                  : Yes
Forced                                  : No

Audio
ID                                      : 2
Format                                  : AC-3
Format/Info                              : Audio Coding 3
Mode extension                          : CM (complete main)
Format settings, Endianness              : Big
Codec ID                                : A_AC3
Duration                                : 1h 34mn
Bit rate mode                            : Constant
Bit rate                                : 384 Kbps
Channel(s)                              : 6 channels
Channel positions                        : Front: L C R, Side: L R, LFE
Sampling rate                            : 48.0 KHz
Frame rate                              : 31.250 fps (1536 spf)
Compression mode                        : Lossy
Stream size                              : 261 MiB (21%)
Language                                : Turkish
Default                                  : Yes
Forced                                  : No

Menu
00:00:00.000                            : en:1
00:25:55.080                            : en:2
00:47:24.720                            : en:3
01:08:29.080                            : en:4
01:31:20.440                            : en:5

Film Detayları


 Merhaba Güzel Vatanım

 Merhaba Güzel Vatanım

 Merhaba Güzel Vatanım


Film Fragmanı


Film Detayları

Uptobox ile indir

1Fichier ile indir

1Fichier'den İndiremiyor musun? Tıklayın!


Mega ile indir

Bunun için üzgünüz ancak, bu linke sadece premium üyeler erişebilir.

Filmbol Cloud



Konu ile Alakalı Benzer Konular
Konular Yazar Yorumlar Okunma Son Yorum
Filmin Yayınlanma Tarihi: 2014
Transformers: Kayıp Çağ (Transformers: Age of Extinction) - 2014 - TR+ORG - 720P BroserBros 0 22 , Saat: 23:15
Son Yorum: BroserBros
Filmin Yayınlanma Tarihi: 2019
Queen & Slim (Queen ve Slim) - 2019 - TR+ORG - 720P BroserBros 0 26 , Saat: 22:54
Son Yorum: BroserBros
Filmin Yayınlanma Tarihi: 2015
Minyonlar (Minions) - 2015 - TR+ORG - 720P BroserBros 0 21 , Saat: 22:34
Son Yorum: BroserBros
Filmin Yayınlanma Tarihi: 2014
Herkül: Özgürlük Savaşçısı (Hercules) - 2014 - TR+ORG - 720P BroserBros 0 12 , Saat: 18:15
Son Yorum: BroserBros
Filmin Yayınlanma Tarihi: 2018
Mamma Mia! Yeniden Başlıyoruz (Mamma Mia! Here We Go Again) - 2018 - TR+ORG - 720P BroserBros 0 50 01-06-2020, Saat: 15:59
Son Yorum: BroserBros

Hızlı Menü: