Filmbol Forum Film İndir 1080P v Merak Etme, Fazla Uzaklaşamaz (2018) Türkçe Dublaj BLURAY m1080P İndir
Mega linklerinin şikayet edilmemesi için global erişime kapatıp sadece yorum yapanlara açıyoruz. Bu linkleri gizleme işlemini mecburen yapıyoruz ve yorum yapmanızın siteye değil size faydası vardır. Teşekürler yazmayı çok görüp, Random/Spam mesajlar atarak Mega linklerini açmaya çalışan kullanıcılara önce süresiz ban, devam ederse IP ban atacağız.
Filmbol'da moderatör olmak ister misiniz? Bizimle iletişime geçmek için tıklayın!
Merak Etme, Fazla Uzaklaşamaz (2018) Türkçe Dublaj BLURAY m1080P İndir
BroserBros
Merak Etme, Fazla Uzaklaşamaz (2018) Türkçe Dublaj BLURAY m1080P İndir
0
366
  • Derecelendirme: 0/5 - 0 oy
  • 1
  • 2
  • 3
  • 4
  • 5
Konuyu Okuyanlar:1 Ziyaretçi
Şuan Online!
Filmin Yayınlanma Tarihi: 2018 
WWW
Şuan Online!
BroserBros Kurucu Admin
*******
Admin





Ses Kodek: AC3


Audio Coding 3 (AC3)






Merak Etme Fazla Uzaklasamaz



Teknik Detaylar


Kod :
General
Complete name                            : Merak.Etme.Fazla.Uzaklaşamaz.2018.m1080p.BLURAY.x264.TR.Filmbol.mkv
Format                                   : Matroska
Format version                           : Version 4 / Version 2
File size                                : 1.87 GiB
Duration                                 : 1h 54mn
Overall bit rate                         : 2 338 Kbps
Movie name                               : Merak Etme, Fazla Uzaklaşamaz (2018) - Filmbol.org
Encoded date                             : UTC 2019-08-26 15:58:06
Writing application                      : mkvmerge v35.0.0 ('All The Love In The World') 64-bit
Writing library                          : libebml v1.3.9 + libmatroska v1.5.2

Video
ID                                       : 1
Format                                   : AVC
Format/Info                              : Advanced Video Codec
Format profile                           : [email protected]
Format settings, CABAC                   : Yes
Format settings, ReFrames                : 4 frames
Codec ID                                 : V_MPEG4/ISO/AVC
Duration                                 : 1h 54mn
Bit rate                                 : 2 150 Kbps
Width                                    : 1 920 pixels
Height                                   : 1 072 pixels
Display aspect ratio                     : 16:9
Frame rate mode                          : Constant
Frame rate                               : 23.976 (24000/1001) fps
Color space                              : YUV
Chroma subsampling                       : 4:2:0
Bit depth                                : 8 bits
Scan type                                : Progressive
Bits/(Pixel*Frame)                       : 0.044
Stream size                              : 1.72 GiB (92%)
Title                                    : 1080P - Filmbol.org
Writing library                          : x264 core 155
Default                                  : Yes
Forced                                   : No

Audio
ID                                       : 2
Format                                   : AC-3
Format/Info                              : Audio Coding 3
Mode extension                           : CM (complete main)
Format settings, Endianness              : Big
Codec ID                                 : A_AC3
Duration                                 : 1h 51mn
Bit rate mode                            : Constant
Bit rate                                 : 192 Kbps
Channel(s)                               : 2 channels
Channel positions                        : Front: L R
Sampling rate                            : 48.0 KHz
Frame rate                               : 31.250 fps (1536 spf)
Compression mode                         : Lossy
Stream size                              : 153 MiB (8%)
Title                                    : Türkçe - Filmbol.org
Language                                 : Turkish
Default                                  : Yes
Forced                                   : No


Film Detayları


Merak Etme Fazla Uzaklasamaz

Merak Etme Fazla Uzaklasamaz

Merak Etme Fazla Uzaklasamaz


Film Fragmanı


Film Detayları

Mini 1080P İndir


Uptobox ile indir


Mega linki şuan da gizli. Kullanıma açmak için konuya yorum yapın ve ardından sayfayı yenileyin.

Mega


f2ch

MediaFire ile indir

Google Drive linki şuan da gizli. Kullanıma açmak için konuya yorum yapın ve ardından sayfayı yenileyin.

Google Drive




Konu ile Alakalı Benzer Konular
Konular Yazar Yorumlar Okunma Son Yorum
Filmin Yayınlanma Tarihi: 2002
Harry Potter ve Sırlar Odası (Chamber of Secrets) Türkçe Dublaj BLURAY 1080P İndir BroserBros 25 2,998 12 dakika önce
Son Yorum: bjk1001
Filmin Yayınlanma Tarihi: 2018
Soğuk Savaş (Zimna wojna) Türkçe Dublaj BLURAY m1080P İndir BroserBros 2 453 22 dakika önce
Son Yorum: Axioma
Filmin Yayınlanma Tarihi: 2018
Curtiz (Curtiz) - 2018 - TR+ORG - 1080P | tt6774588 BroserBros 1 219 32 dakika önce
Son Yorum: BroserBros
Filmin Yayınlanma Tarihi: 2018
Sessiz Bir Yer (A Quiet Place) Türkçe Dublaj m1080P İndir BroserBros 7 3,046 , Saat: 16:10
Son Yorum: darkknight.1980
Filmin Yayınlanma Tarihi: 2012
Rüzgar Yükseliyor (Kaze tachinu) Türkçe Dublaj BLURAY 1080P İndir BroserBros 6 832 28-02-2021, Saat: 21:56
Son Yorum: gamedeveloper68

Hızlı Menü: