Filmbol Forum Film İndir BRRip XviD v Meg: Derinlerdeki Dehşet (The Meg) Türkçe Dublaj Brrip Xvid İndir
Filmbol'da moderatör olmak ister misiniz? Bizimle iletişime geçmek için tıklayın!
Meg: Derinlerdeki Dehşet (The Meg) Türkçe Dublaj Brrip Xvid İndir
BroserBros
Meg: Derinlerdeki Dehşet (The Meg) Türkçe Dublaj Brrip Xvid İndir
0
245
  • Derecelendirme: 0/5 - 0 oy
  • 1
  • 2
  • 3
  • 4
  • 5
Konuyu Okuyanlar:2 Ziyaretçi
Şuan Online!
Filmin Yayınlanma Tarihi: 2018 
Şuan Online!
BroserBros Kurucu Admin
*******
Admin

Vizyon Tarihi


10 Ağustos 2018

imdb puanı


5,7 / 130,000

süre


117 dakika

Editör Puanı


6,3

Video Format: Avi


Audio Video Interleave (.AVI)

Ses Kodek: MP3


MPEG-1 Audio Layer III (MP3)

sürüm


h263 | Brrip Xvid

Boyutlar


1,38



the meg



Film Detayları

Meg: Derinlerdeki Dehşet, tarih öncesinden kalma bir canavarı durdurmaya çalışan Jonas Taylor'ın hikayesini anlatıyor. Uluslararası bir deniz altı gözlem programının parçası olan derin deniz sualtısı, soyunun çoktan tükenmiş olduğu düşünülen büyük bir yaratık tarafından saldırıya uğrar. Hasar gören denizaltı, mürettebatı içeride kapana kısılmış bir halde, Pasifik Okyanusu'nun en derin yerinde durmaktadır. Vizyoner Çin okyanus bilimcisi, kızı Suyin'in gönülsüzlüğüne rağmen, mürettebatı kurtarması için uzman derin deniz kurtarma dalgıcı Jonas Taylor'ı tutar. Taylor sualtının çevresinde süzülen bu canavarla daha önce de karşılaşmıştır; tarih öncesinden kalan ve iki buçuk milyar yıl önce soyunun tükendiği zannedilen, 23 metrelik bir Megalodon. Taylor aşağıda sıkışıp kalmış herkesi kurtarmak için kendi hayatını riske atmalı, korkularıyla yüzleşmeli ve dünyanın en tehlikeli yırtıcısının karşısına çıkmalıdır...

Meg: Derinlerdeki Dehşet (The Meg) Filmi Imdb'den 130,000 kişi tarafından oylandı ve 5,7 puan aldı. Bu film için editör puanı 6,3 olarak belirlendi. İyi Seyirler!


Teknik Detaylar


Kod :
General
Complete name                            : Meg.Derinlerdeki.Dehşet.2018.BRRip.XviD.TR.Filmbol.avi
Format                                   : AVI
Format/Info                              : Audio Video Interleave
File size                                : 1.38 GiB
Duration                                 : 1h 53mn
Overall bit rate                         : 1 739 Kbps

Video
ID                                       : 0
Format                                   : MPEG-4 Visual
Format profile                           : Simple@L5
Format settings, BVOP                    : No
Format settings, QPel                    : No
Format settings, GMC                     : No warppoints
Format settings, Matrix                  : Default (H.263)
Codec ID                                 : XVID
Codec ID/Hint                            : XviD
Duration                                 : 1h 53mn
Bit rate                                 : 1 598 Kbps
Width                                    : 720 pixels
Height                                   : 302 pixels
Display aspect ratio                     : 2.40:1
Frame rate                               : 23.976 fps
Color space                              : YUV
Chroma subsampling                       : 4:2:0
Bit depth                                : 8 bits
Scan type                                : Progressive
Compression mode                         : Lossy
Bits/(Pixel*Frame)                       : 0.306
Stream size                              : 1.26 GiB (92%)
Writing library                          : Lavc58.18.100

Audio
ID                                       : 1
Format                                   : MPEG Audio
Format version                           : Version 1
Format profile                           : Layer 3
Mode                                     : Joint stereo
Mode extension                           : MS Stereo
Codec ID                                 : 55
Codec ID/Hint                            : MP3
Duration                                 : 1h 53mn
Bit rate mode                            : Constant
Bit rate                                 : 128 Kbps
Channel(s)                               : 2 channels
Sampling rate                            : 48.0 KHz
Compression mode                         : Lossy
Stream size                              : 104 MiB (7%)
Alignment                                : Aligned on interleaves
Interleave, duration                     : 24 ms (0.58 video frame)

Film Detayları


the meg

the meg

the meg


Film Fragmanı


Film Detayları

Brrip İndir



Uptobox ile indir

1Fichier ile indir

1Fichier'den İndiremiyor musun? Tıklayın!


Mega ile indir

MediaFire ile indir



Konu ile Alakalı Benzer Konular
Konular Yazar Yorumlar Okunma Son Yorum
Filmin Yayınlanma Tarihi: 2019
Luce (Luce) - 2019 - TR - BRRip XviD BroserBros 0 16 9 saat önce
Son Yorum: BroserBros
Filmin Yayınlanma Tarihi: 2020
Aşka İnan (I Still Believe) - 2020 - TR - BRRip XviD BroserBros 0 15 10 saat önce
Son Yorum: BroserBros
Filmin Yayınlanma Tarihi: 2018
Döndüm Ben (Yerli) - 2018 - TR - BRRip XviD BroserBros 0 36 27-11-2020, Saat: 18:40
Son Yorum: BroserBros
Filmin Yayınlanma Tarihi: 2018
Bana Bir Soygun Yaz 2 (Yerli) - 2018 - TR - BRRip XviD BroserBros 0 27 27-11-2020, Saat: 18:26
Son Yorum: BroserBros
Filmin Yayınlanma Tarihi: 2007
Amerikan Pastası 6: Beta Evi (American Pie: Beta House) - 2007 - TR - BRRip XviD BroserBros 2 247 27-11-2020, Saat: 14:31
Son Yorum: tayyib5731

Hızlı Menü: