Filmbol Forum Film İndir 1080P v Meg: Derinlerdeki Dehşet (The Meg) Türkçe Dublaj 1080P İndir
Filmbol'da moderatör olmak ister misiniz? Bizimle iletişime geçmek için tıklayın!
Meg: Derinlerdeki Dehşet (The Meg) Türkçe Dublaj 1080P İndir
BroserBros
Meg: Derinlerdeki Dehşet (The Meg) Türkçe Dublaj 1080P İndir
4
492
  • Derecelendirme: 0/5 - 0 oy
  • 1
  • 2
  • 3
  • 4
  • 5
Konuyu Okuyanlar:1 Ziyaretçi
Şuan Online!
Filmin Yayınlanma Tarihi: 2018 
Şuan Online!
BroserBros Kurucu Admin
*******
Admin

Vizyon Tarihi


10 Ağustos 2018

imdb puanı


5,7 / 130,000

süre


117 dakika

Editör Puanı


6,3

Video Format: Mkv


Matroska (.MKV)

Ses Kodek: AC3


Audio Coding 3 (AC3)

sürüm


x264 | 1080P | BLURAY

Boyutlar


2,06



the meg



Film Detayları

Meg: Derinlerdeki Dehşet, tarih öncesinden kalma bir canavarı durdurmaya çalışan Jonas Taylor'ın hikayesini anlatıyor. Uluslararası bir deniz altı gözlem programının parçası olan derin deniz sualtısı, soyunun çoktan tükenmiş olduğu düşünülen büyük bir yaratık tarafından saldırıya uğrar. Hasar gören denizaltı, mürettebatı içeride kapana kısılmış bir halde, Pasifik Okyanusu'nun en derin yerinde durmaktadır. Vizyoner Çin okyanus bilimcisi, kızı Suyin'in gönülsüzlüğüne rağmen, mürettebatı kurtarması için uzman derin deniz kurtarma dalgıcı Jonas Taylor'ı tutar. Taylor sualtının çevresinde süzülen bu canavarla daha önce de karşılaşmıştır; tarih öncesinden kalan ve iki buçuk milyar yıl önce soyunun tükendiği zannedilen, 23 metrelik bir Megalodon. Taylor aşağıda sıkışıp kalmış herkesi kurtarmak için kendi hayatını riske atmalı, korkularıyla yüzleşmeli ve dünyanın en tehlikeli yırtıcısının karşısına çıkmalıdır...

Meg: Derinlerdeki Dehşet (The Meg) Filmi Imdb'den 130,000 kişi tarafından oylandı ve 5,7 puan aldı. Bu film için editör puanı 6,3 olarak belirlendi. İyi Seyirler!


Teknik Detaylar


Kod :
General
Unique ID                                : 99268554688211592816848136939900562519 (0x4AAE6D9E94C897AF4FEDA067B368EC57)
Complete name                            : /root/Desktop/8/Meg.Derinlerdeki.Dehşet.2018.1080p.BLURAY.x264.TR.Filmbol.mkv
Format                                   : Matroska
Format version                           : Version 4 / Version 2
File size                                : 2.06 GiB
Duration                                 : 1h 53mn
Overall bit rate                         : 2 599 Kbps
Movie name                               : Meg: Derinlerdeki Dehşet (2018) - Filmbol.org
Encoded date                             : UTC 2019-12-21 13:02:30
Writing application                      : mkvmerge v35.0.0 ('All The Love In The World') 64-bit
Writing library                          : libebml v1.3.9 + libmatroska v1.5.2

Video
ID                                       : 1
Format                                   : AVC
Format/Info                              : Advanced Video Codec
Format profile                           : High@L4.1
Format settings, CABAC                   : Yes
Format settings, ReFrames                : 4 frames
Codec ID                                 : V_MPEG4/ISO/AVC
Duration                                 : 1h 53mn
Bit rate                                 : 2 150 Kbps
Width                                    : 1 920 pixels
Height                                   : 800 pixels
Display aspect ratio                     : 2.40:1
Frame rate mode                          : Constant
Frame rate                               : 23.976 (24000/1001) fps
Color space                              : YUV
Chroma subsampling                       : 4:2:0
Bit depth                                : 8 bits
Scan type                                : Progressive
Bits/(Pixel*Frame)                       : 0.058
Stream size                              : 1.70 GiB (83%)
Title                                    : 1080P - Filmbol.org
Writing library                          : x264 core 157
Default                                  : Yes
Forced                                   : No

Audio
ID                                       : 2
Format                                   : AC-3
Format/Info                              : Audio Coding 3
Mode extension                           : CM (complete main)
Format settings, Endianness              : Big
Codec ID                                 : A_AC3
Duration                                 : 1h 53mn
Bit rate mode                            : Constant
Bit rate                                 : 448 Kbps
Channel(s)                               : 6 channels
Channel positions                        : Front: L C R, Side: L R, LFE
Sampling rate                            : 48.0 KHz
Frame rate                               : 31.250 fps (1536 spf)
Compression mode                         : Lossy
Stream size                              : 363 MiB (17%)
Title                                    : Türkçe - Filmbol.org
Language                                 : Turkish
Default                                  : Yes
Forced                                   : No

Text
ID                                       : 3
Format                                   : UTF-8
Codec ID                                 : S_TEXT/UTF8
Codec ID/Info                            : UTF-8 Plain Text
Duration                                 : 1h 51mn
Bit rate                                 : 2 bps
Count of elements                        : 94
Stream size                              : 1.89 KiB (0%)
Title                                    : KISIM
Language                                 : Turkish
Default                                  : No
Forced                                   : Yes

Film Detayları


the meg

the meg

the meg


Film Fragmanı


Film Detayları

Mini 1080P İndir



Uptobox ile indir

1Fichier ile indir

1Fichier'den İndiremiyor musun? Tıklayın!


Mega ile indir

MediaFire ile indir

Şuan Offine!
Şuan Offine!
ahmetyee1 Süper Üye
***
Super Üye

  • Konular3
  • Mesajlar54
  • Rep puanı 0
halla iyi olmuş.
Şuan Offine!
Şuan Offine!
alpozgenoglu Uzman Üye
**
Uzman Üye

  • Konular0
  • Mesajlar7
  • Rep puanı 0
fafasf

fafadfsaasfd
Şuan Online!
Şuan Online!
Mehmet Yöney Uzman Üye
**
Uzman Üye

  • Konular0
  • Mesajlar7
  • Rep puanı 0
dublajlı dahha mı iyi
Şuan Offine!
Şuan Offine!
KeremSGLK Uzman Üye
**
Uzman Üye

  • Konular0
  • Mesajlar11
  • Rep puanı 0
eywallah


Konu ile Alakalı Benzer Konular
Konular Yazar Yorumlar Okunma Son Yorum
Filmin Yayınlanma Tarihi: 2020
Deathstroke Şövalyeler ve Ejderhalar (Deathstroke Knights & Dragons: The Movie) - 2020 - TR+ORG - 1080P BroserBros 0 41 23-11-2020, Saat: 18:31
Son Yorum: BroserBros
Filmin Yayınlanma Tarihi: 2019
15 Dakika Savaş (L'intervention) - 2019 - TR+ORG - 1080P BroserBros 0 43 23-11-2020, Saat: 17:42
Son Yorum: BroserBros
Filmin Yayınlanma Tarihi: 2020
Sürprizli Gece (The Sleepover) - 2020 - TR+ORG - 1080P BroserBros 0 44 23-11-2020, Saat: 16:19
Son Yorum: BroserBros
Filmin Yayınlanma Tarihi: 2020
Feride (Feride) - 2020 - TR+ORG - 1080P BroserBros 0 75 22-11-2020, Saat: 20:24
Son Yorum: BroserBros
Filmin Yayınlanma Tarihi: 2019
Gel Babacığına (Come to Daddy) - 2019 - TR+ORG - 1080P BroserBros 0 35 22-11-2020, Saat: 17:43
Son Yorum: BroserBros

Hızlı Menü: