Filmbol Forum Film İndir 720P v Mazlum Kuzey 2 (Kasada Para Var!) - 2019 - TR+ORG - 720P
Filmbol'da moderatör olmak ister misiniz? Bizimle iletişime geçmek için tıklayın!
Mazlum Kuzey 2 (Kasada Para Var!) - 2019 - TR+ORG - 720P
BroserBros
Mazlum Kuzey 2 (Kasada Para Var!) - 2019 - TR+ORG - 720P
0
41
  • Derecelendirme: 0/5 - 0 oy
  • 1
  • 2
  • 3
  • 4
  • 5
Konuyu Okuyanlar:bakuli_84, 1 Ziyaretçi
Şuan Online!
Filmin Yayınlanma Tarihi: 2019 
Şuan Online!
BroserBros Kurucu Admin
*******
Admin

Vizyon Tarihi


12 Nisan 2019

imdb puanı


2,4 / 100

süre


95 dakika

Editör Puanı


4,0 / 10

Video Format: Mkv


Matroska (.MKV)

Ses Kodek: AC3


Audio Coding 3 (AC3)

sürüm


x264 | 720P | WEBRip

Boyutlar


1,15 GB



 Mazlum Kuzey 2



Elon Musk'ın uzaya araba gönderdiğini duyan Mazlum Kuzey çocukluk hayali olan uzaya okey masası kurma ve burada okey oynama hayalini gerçekleştirmek için yola koyulur. Ekibini toplar ve uzaya çıkar ancak bu iş sandıkları kadar kolay olmayacaktır...

Mazlum Kuzey 2 (2019) (Kasada Para Var!) Filmi Imdb'den 100 kişi tarafından oylandı ve 2,4 puan aldı. Bu film için editör puanı 4,0 olarak belirlendi. İyi Seyirler!

Teknik Detaylar

Kod :
General
Unique ID                                : 119875350040904225347107748308577212341 (0x5A2F271259EBC4ACEB163F76E110D7B5)
Complete name                            : /root/Desktop/1/Mazlum.Kuzey.2.2019.720p.WEB-DL.x264.Yerli.Filmbol.mkv
Format                                  : Matroska
Format version                          : Version 4 / Version 2
File size                                : 1.15 GiB
Duration                                : 1h 34mn
Overall bit rate                        : 1 752 Kbps
Encoded date                            : UTC 2020-08-14 11:27:59
Writing application                      : mkvmerge v34.0.0 ('Sight and Seen') 64-bit
Writing library                          : libebml v1.3.7 + libmatroska v1.5.0

Video
ID                                      : 1
Format                                  : AVC
Format/Info                              : Advanced Video Codec
Format profile                          : Main@L3.1
Format settings, CABAC                  : Yes
Format settings, ReFrames                : 2 frames
Format settings, GOP                    : M=1, N=25
Codec ID                                : V_MPEG4/ISO/AVC
Duration                                : 1h 34mn
Bit rate                                : 1 366 Kbps
Width                                    : 1 280 pixels
Height                                  : 720 pixels
Display aspect ratio                    : 16:9
Frame rate mode                          : Constant
Frame rate                              : 24.000 fps
Color space                              : YUV
Chroma subsampling                      : 4:2:0
Bit depth                                : 8 bits
Scan type                                : Progressive
Bits/(Pixel*Frame)                      : 0.062
Stream size                              : 920 MiB (78%)
Language                                : Turkish
Default                                  : Yes
Forced                                  : No

Audio
ID                                      : 2
Format                                  : AC-3
Format/Info                              : Audio Coding 3
Mode extension                          : CM (complete main)
Format settings, Endianness              : Big
Codec ID                                : A_AC3
Duration                                : 1h 34mn
Bit rate mode                            : Constant
Bit rate                                : 384 Kbps
Channel(s)                              : 6 channels
Channel positions                        : Front: L C R, Side: L R, LFE
Sampling rate                            : 48.0 KHz
Frame rate                              : 31.250 fps (1536 spf)
Compression mode                        : Lossy
Stream size                              : 258 MiB (22%)
Language                                : Turkish
Default                                  : Yes
Forced                                  : No

Film Detayları


 Mazlum Kuzey 2

 Mazlum Kuzey 2

 Mazlum Kuzey 2


Film Fragmanı


Film Detayları

Uptobox ile indir

1Fichier ile indir

1Fichier'den İndiremiyor musun? Tıklayın!


Mega ile indir

Bunun için üzgünüz ancak, bu linke sadece premium üyeler erişebilir.

Filmbol Cloud



Konu ile Alakalı Benzer Konular
Konular Yazar Yorumlar Okunma Son Yorum
Filmin Yayınlanma Tarihi: 2020
Deathstroke Şövalyeler ve Ejderhalar (Deathstroke Knights & Dragons: The Movie) - 2020 - TR+ORG - 720P BroserBros 0 34 23-11-2020, Saat: 18:30
Son Yorum: BroserBros
Filmin Yayınlanma Tarihi: 2019
15 Dakika Savaş (L'intervention) - 2019 - TR+ORG - 720P BroserBros 0 37 23-11-2020, Saat: 17:42
Son Yorum: BroserBros
Filmin Yayınlanma Tarihi: 2020
Sürprizli Gece (The Sleepover) - 2020 - TR+ORG - 720P BroserBros 0 37 23-11-2020, Saat: 16:19
Son Yorum: BroserBros
Filmin Yayınlanma Tarihi: 2020
Feride (Feride) - 2020 - TR+ORG - 720P BroserBros 0 57 22-11-2020, Saat: 20:23
Son Yorum: BroserBros
Filmin Yayınlanma Tarihi: 2019
Gel Babacığına (Come to Daddy) - 2019 - TR+ORG - 720P BroserBros 0 32 22-11-2020, Saat: 17:43
Son Yorum: BroserBros

Hızlı Menü: