Filmbol Forum Film İndir FHD - FULL HD v Masumiyetin Dayanılmaz Çekiciliği (White As Snow) - 2019 - TR+ORG - FHD
Moderatör Alımları Başladı! Başvuru yapmak için tıklayın.
Filmbol Premium'da %50'e varan indirim fırsatı!
Masumiyetin Dayanılmaz Çekiciliği (White As Snow) - 2019 - TR+ORG - FHD
BroserBros
Masumiyetin Dayanılmaz Çekiciliği (White As Snow) - 2019 - TR+ORG - FHD
0
150
  • Derecelendirme: 0/5 - 0 oy
  • 1
  • 2
  • 3
  • 4
  • 5
Konuyu Okuyanlar:1 Ziyaretçi
Şuan Offine!
Filmin Yayınlanma Tarihi: 2019 
Şuan Offine!
BroserBros Kurucu Admin
*******
Admin

Vizyon Tarihi


17 Mayıs 2019

imdb puanı


5,3 / 500

süre


112 dakika

Editör Puanı


5,5 / 10

Video Format: Mkv


Matroska (.MKV)

Ses Kodek: AC3


Audio Coding 3 (AC3)

sürüm


x264 | 1080P | BLURAY

Boyutlar


2,42 GB



 Masumiyetin Dayanılmaz Çekiciliği



Babası kendine yeni bir eş bulup evlendikten sonra bu genç kız yalnız kalır. Üstelik annesi tarafından da son derece kıskanılmaktadır ve bu durum en sonunda üvey annesinin onu evden atmasıyla sona erer. Genç kız dış dünyada kendi başına kaldığında, aslında dünyanın çok farklı olduğunu anlayacaktır ve bu durum yeni tanışacağı kişiler sayesinde de gelişecektir...

Masumiyetin Dayanılmaz Çekiciliği (2019) (White As Snow) Filmi Imdb'den 500 kişi tarafından oylandı ve 5,3 puan aldı. Bu film için editör puanı 5,5 olarak belirlendi. İyi Seyirler!

Teknik Detaylar

Kod :
General
Unique ID                                : 259580856995339166732704347930806093108 (0xC349745D3CFC87E725E2F33AFEAA8534)
Complete name                            : /root/Desktop/3/Masumiyetin.Dayanılmaz.Cekiciligi.2019.1080p.BluRay.x264.TR.FR.Filmbol.mkv
Format                                  : Matroska
Format version                          : Version 4 / Version 2
File size                                : 2.42 GiB
Duration                                : 1h 52mn
Overall bit rate                        : 3 083 Kbps
Movie name                              : Masumiyetin Dayanılmaz Çekiciliği (2019) - Filmbol.org
Encoded date                            : UTC 2020-05-08 10:42:52
Writing application                      : mkvmerge v8.8.0 ('Wind at my back') 64bit
Writing library                          : libebml v1.3.3 + libmatroska v1.4.4

Video
ID                                      : 1
Format                                  : AVC
Format/Info                              : Advanced Video Codec
Format profile                          : High@L4.1
Format settings, CABAC                  : Yes
Format settings, ReFrames                : 4 frames
Codec ID                                : V_MPEG4/ISO/AVC
Duration                                : 1h 52mn
Bit rate                                : 2 699 Kbps
Width                                    : 1 920 pixels
Height                                  : 960 pixels
Display aspect ratio                    : 2.000
Frame rate mode                          : Constant
Frame rate                              : 24.000 fps
Color space                              : YUV
Chroma subsampling                      : 4:2:0
Bit depth                                : 8 bits
Scan type                                : Progressive
Bits/(Pixel*Frame)                      : 0.061
Stream size                              : 2.12 GiB (87%)
Title                                    : Filmbol.org
Writing library                          : x264 core 157 r2935 545de2f
Encoding settings                        : cabac=1 / ref=3 / deblock=1:-1:-1 / analyse=0x3:0x113 / me=hex / subme=7 / psy=1 / psy_rd=1.00:0.15 / mixed_ref=1 / me_range=16 / chroma_me=1 / trellis=1 / 8x8dct=1 / cqm=0 / deadzone=21,11 / fast_pskip=1 / chroma_qp_offset=-3 / threads=30 / lookahead_threads=5 / sliced_threads=0 / nr=0 / decimate=1 / interlaced=0 / bluray_compat=0 / constrained_intra=0 / bframes=3 / b_pyramid=2 / b_adapt=1 / b_bias=0 / direct=1 / weightb=1 / open_gop=0 / weightp=2 / keyint=240 / keyint_min=24 / scenecut=40 / intra_refresh=0 / rc_lookahead=40 / rc=2pass / mbtree=1 / bitrate=2699 / ratetol=1.0 / qcomp=0.60 / qpmin=0 / qpmax=69 / qpstep=4 / cplxblur=20.0 / qblur=0.5 / vbv_maxrate=62500 / vbv_bufsize=78125 / nal_hrd=none / filler=0 / ip_ratio=1.40 / aq=1:1.00
Default                                  : Yes
Forced                                  : No

Audio #1
ID                                      : 2
Format                                  : AC-3
Format/Info                              : Audio Coding 3
Mode extension                          : CM (complete main)
Format settings, Endianness              : Big
Codec ID                                : A_AC3
Duration                                : 1h 52mn
Bit rate mode                            : Constant
Bit rate                                : 192 Kbps
Channel(s)                              : 2 channels
Channel positions                        : Front: L R
Sampling rate                            : 48.0 KHz
Frame rate                              : 31.250 fps (1536 spf)
Compression mode                        : Lossy
Stream size                              : 154 MiB (6%)
Title                                    : Filmbol.org
Language                                : Turkish
Default                                  : Yes
Forced                                  : No

Audio #2
ID                                      : 3
Format                                  : AC-3
Format/Info                              : Audio Coding 3
Mode extension                          : CM (complete main)
Format settings, Endianness              : Big
Codec ID                                : A_AC3
Duration                                : 1h 52mn
Bit rate mode                            : Constant
Bit rate                                : 192 Kbps
Channel(s)                              : 2 channels
Channel positions                        : Front: L R
Sampling rate                            : 48.0 KHz
Frame rate                              : 31.250 fps (1536 spf)
Compression mode                        : Lossy
Stream size                              : 154 MiB (6%)
Title                                    : Filmbol.org
Language                                : French
Default                                  : No
Forced                                  : No

Text
ID                                      : 4
Format                                  : UTF-8
Codec ID                                : S_TEXT/UTF8
Codec ID/Info                            : UTF-8 Plain Text
Duration                                : 1h 41mn
Bit rate                                : 43 bps
Count of elements                        : 986
Stream size                              : 32.2 KiB (0%)
Title                                    : Filmbol.org
Language                                : Turkish
Default                                  : No
Forced                                  : No

Film Detayları


 Masumiyetin Dayanılmaz Çekiciliği

 Masumiyetin Dayanılmaz Çekiciliği

 Masumiyetin Dayanılmaz Çekiciliği


Film Fragmanı


Film Detayları

Uptobox ile indir

1Fichier ile indir

1Fichier'den İndiremiyor musun? Tıklayın!


Mega ile indir

Bunun için üzgünüz ancak, bu linke sadece premium üyeler erişebilir.

Filmbol Cloud



Konu ile Alakalı Benzer Konular
Konular Yazar Yorumlar Okunma Son Yorum
Filmin Yayınlanma Tarihi: 2019
Rahat Kız (An Easy Girl) - 2019 - TR+ORG - FHD - x264 BroserBros 0 380 08-10-2020, Saat: 19:35
Son Yorum: BroserBros
Filmin Yayınlanma Tarihi: 2019
Benim Şapşik Köpeğim (Mon chien Stupide) - 2019 - TR+ORG - FHD - x264 BroserBros 0 157 02-10-2020, Saat: 21:35
Son Yorum: BroserBros
Filmin Yayınlanma Tarihi: 2019
Umut Vadisi (Hope Gap) - 2019 - TR+ORG - FHD - x264 BroserBros 0 359 18-09-2020, Saat: 12:52
Son Yorum: BroserBros
Filmin Yayınlanma Tarihi: 2019
Cep Herkülü: Naim Süleymanoğlu (Cep Herkülü: Naim Süleymanoğlu) - 2019 - TR+ORG - FHD - x264 BroserBros 0 439 15-09-2020, Saat: 21:51
Son Yorum: BroserBros
Filmin Yayınlanma Tarihi: 2019
Karanlık Sular (Dark Waters) - 2019 - TR+ORG - FHD - x264 BroserBros 0 369 01-09-2020, Saat: 21:40
Son Yorum: BroserBros

Hızlı Menü: