Filmbol Forum Film İndir 720P v Masallardan Geriye Kalan (Yerli) - 2020 - TR+ORG - 720P
Moderatör Alımları Başladı! Başvuru yapmak için tıklayın.
Filmbol Premium'da %50'e varan indirim fırsatı!
Masallardan Geriye Kalan (Yerli) - 2020 - TR+ORG - 720P
BroserBros
Masallardan Geriye Kalan (Yerli) - 2020 - TR+ORG - 720P
0
411
  • Derecelendirme: 0/5 - 0 oy
  • 1
  • 2
  • 3
  • 4
  • 5
Konuyu Okuyanlar:1 Ziyaretçi
Şuan Offine!
Filmin Yayınlanma Tarihi: 2020 
Şuan Offine!
BroserBros Kurucu Admin
*******
Admin

Vizyon Tarihi


14 Şubat 2020

imdb puanı


3,6 / 500

süre


98 dakika

Editör Puanı


4,5 / 10

Video Format: Mkv


Matroska (.MKV)

Ses Kodek: AC3


Audio Coding 3 (AC3)

sürüm


x264 | 720P | WEB-DL

Boyutlar


1,84 GB



 Masallardan Geriye Kalan



Masallardan Geriye Kalan, üniversitede doçent olan bir adam ile yüksek lisans talebesi bir kız arasında yaşanan aşkı mevzu ediyor. Evren ve Hece arasında beklenmedik bir zamanda, süratle büyüyen aşkı mevzu edinen filmde, aşkın karşı taraftan çok şahsın kendisiyle alakalı olduğu gözler önüne seriliyor.

Masallardan Geriye Kalan (2020) (Yerli) Filmi Imdb'den 500 kişi tarafından oylandı ve 3,6 puan aldı. Bu film için editör puanı 4,5 olarak belirlendi. İyi Seyirler!

Teknik Detaylar

Kod :
General
Unique ID                                : 176182914490288270086407022331359750529 (0x848B98568C6E58CBC28232101CB16981)
Complete name                            : /root/Desktop/6/Masallardan.Geriye.Kalan.2020.720p.WEB-DL.x264.Yerli.Filmbol.mkv
Format                                  : Matroska
Format version                          : Version 4 / Version 2
File size                                : 1.84 GiB
Duration                                : 1h 38mn
Overall bit rate                        : 2 687 Kbps
Encoded date                            : UTC 2020-08-03 22:57:24
Writing application                      : mkvmerge v34.0.0 ('Sight and Seen') 64-bit
Writing library                          : libebml v1.3.7 + libmatroska v1.5.0

Video
ID                                      : 1
Format                                  : AVC
Format/Info                              : Advanced Video Codec
Format profile                          : Main@L3.1
Format settings, CABAC                  : Yes
Format settings, ReFrames                : 2 frames
Codec ID                                : V_MPEG4/ISO/AVC
Duration                                : 1h 38mn
Bit rate                                : 2 045 Kbps
Width                                    : 1 280 pixels
Height                                  : 720 pixels
Display aspect ratio                    : 16:9
Frame rate mode                          : Constant
Frame rate                              : 25.000 fps
Color space                              : YUV
Chroma subsampling                      : 4:2:0
Bit depth                                : 8 bits
Scan type                                : Progressive
Bits/(Pixel*Frame)                      : 0.089
Stream size                              : 1.40 GiB (76%)
Language                                : Turkish
Default                                  : Yes
Forced                                  : No

Audio
ID                                      : 2
Format                                  : AC-3
Format/Info                              : Audio Coding 3
Mode extension                          : CM (complete main)
Format settings, Endianness              : Big
Codec ID                                : A_AC3
Duration                                : 1h 38mn
Bit rate mode                            : Constant
Bit rate                                : 640 Kbps
Channel(s)                              : 6 channels
Channel positions                        : Front: L C R, Side: L R, LFE
Sampling rate                            : 48.0 KHz
Frame rate                              : 31.250 fps (1536 spf)
Compression mode                        : Lossy
Stream size                              : 449 MiB (24%)
Language                                : Turkish
Default                                  : Yes
Forced                                  : No

Film Detayları


 Masallardan Geriye Kalan

 Masallardan Geriye Kalan

 Masallardan Geriye Kalan


Film Fragmanı


Film Detayları

Uptobox ile indir

1Fichier ile indir

1Fichier'den İndiremiyor musun? Tıklayın!


Mega ile indir

Bunun için üzgünüz ancak, bu linke sadece premium üyeler erişebilir.

Filmbol Cloud



Konu ile Alakalı Benzer Konular
Konular Yazar Yorumlar Okunma Son Yorum
Filmin Yayınlanma Tarihi: 2020
Holly Slept Over (Holly Slept Over) - 2020 - TR+ORG - 720P BroserBros 0 1,227 08-10-2020, Saat: 20:08
Son Yorum: BroserBros
Filmin Yayınlanma Tarihi: 2019
Rahat Kız (An Easy Girl) - 2019 - TR+ORG - 720P BroserBros 0 478 08-10-2020, Saat: 19:35
Son Yorum: BroserBros
Filmin Yayınlanma Tarihi: 2020
Mavi Korku 3 (Deep Blue Sea 3) - 2020 - TR+ORG - 720P BroserBros 0 586 03-10-2020, Saat: 21:12
Son Yorum: BroserBros
Filmin Yayınlanma Tarihi: 2018
Fast Color: Gücünü Serbest Bırak (Fast Color) - 2018 - TR+ORG - 720P BroserBros 0 574 03-10-2020, Saat: 16:46
Son Yorum: BroserBros
Filmin Yayınlanma Tarihi: 2019
Benim Şapşik Köpeğim (Mon chien Stupide) - 2019 - TR+ORG - 720P BroserBros 0 160 02-10-2020, Saat: 21:35
Son Yorum: BroserBros

Hızlı Menü: