Hoşgeldin, Ziyaretçi: Giriş Yap Üye Ol


stats
Adblock'u kapattıysanız tıklayın.
Hoşgeldiniz!
Filmbol'u tercih ettiğiniz için teşekkürler, ancak ablock kullanarak devam edemezsiniz.
Merak etmeyin. Heryerden ardı ardına çıkan reklamlar görmeyeceksiniz :)

Sadece site içi 1 reklam göreceksin ve bu site gezintini etkilemeyecek.
Konuyu Oyla:
  • Derecelendirme: 0/5 - 0 oy
  • 1
  • 2
  • 3
  • 4
  • 5
Mary Poppins: Sihirli Dadı (Returns) Türkçe Dublaj Brrip Xvid İndir
#1
Filmin Yayınlanma Tarihi: 2018 

indirme türü


Bulut + Premium

vizyon tarihi


28 Aralık 2018

Boyutlar


1,57

diller


[TR]

altyazilar


Yok [Eklenebilir]

Video Format: Avi


Audio Video Interleave (.AVI)

Video Detay


MPEG-4, 1598 Kbps, 1,46GB

imdb puanı


6,8 / 10,0 / 55,000

süre


130 dakika

Ses Kodek: MP3


MPEG-1 Audio Layer III (MP3)

Ses Detay


128 Kbps, 2 Kanal, 119Mb

Editör Puanı


7,0

Genislik Yukseklik


720-302

sürüm


h263 | Brrip-Xvid



Film Detayları

İlk ziyaretinden sonra Mary Poppins, Bankacıların kardeşlerine ve Micheal'in çocuklarına hayatlarında zorluk çekmemeleri ve destek olmak için onlara yardımcı olacaktır.

Mary Poppins: Returns - Dönüyor (2018) Filmi Imdb'den 26,000 kişi tarafından oylandı ve 6,8 puan aldı. Bu film için editör puanı 7,0 olarak belirlendi. İyi Seyirler!


Teknik Detaylar



Kod:
General
Complete name                            : Mary.Poppins.Dönüyor.2018.BRRip.XviD.TR.Filmbol.avi
Format                                   : AVI
Format/Info                              : Audio Video Interleave
File size                                : 1.58 GiB
Duration                                 : 2h 10mn
Overall bit rate                         : 1 739 Kbps

Video
ID                                       : 0
Format                                   : MPEG-4 Visual
Format profile                           : Simple@L5
Format settings, BVOP                    : No
Format settings, QPel                    : No
Format settings, GMC                     : No warppoints
Format settings, Matrix                  : Default (H.263)
Codec ID                                 : XVID
Codec ID/Hint                            : XviD
Duration                                 : 2h 10mn
Bit rate                                 : 1 598 Kbps
Width                                    : 720 pixels
Height                                   : 302 pixels
Display aspect ratio                     : 2.40:1
Frame rate                               : 23.976 (23976/1000) fps
Color space                              : YUV
Chroma subsampling                       : 4:2:0
Bit depth                                : 8 bits
Scan type                                : Progressive
Compression mode                         : Lossy
Bits/(Pixel*Frame)                       : 0.307
Stream size                              : 1.46 GiB (92%)
Writing library                          : Lavc58.35.100

Audio
ID                                       : 1
Format                                   : MPEG Audio
Format version                           : Version 1
Format profile                           : Layer 3
Mode                                     : Joint stereo
Mode extension                           : MS Stereo
Codec ID                                 : 55
Codec ID/Hint                            : MP3
Duration                                 : 2h 10mn
Bit rate mode                            : Constant
Bit rate                                 : 128 Kbps
Channel(s)                               : 2 channels
Sampling rate                            : 48.0 KHz
Compression mode                         : Lossy
Stream size                              : 119 MiB (7%)
Alignment                                : Aligned on interleaves
Interleave, duration                     : 24 ms (0.58 video frame)


Film Detayları


The Silence Turkce Dublaj indir

The Silence Turkce Dublaj indir

The Silence Turkce Dublaj indir

The Silence Turkce Dublaj indir

The Silence Turkce Dublaj indir




Film Fragmanı


Film Detayları

Brrip İndir


Turbobit İle İndir

Tusfiles ile indir

Filerio ile indir

LetsUpload ile indir

MegaUp ile indir

Filmbol'da aşağıdaki linkler sadece üyelere sunulur. Ayrıca bu linklerde link kısaltma servisleri kullanılmaz, linke tek tık ile reklamsız erişirsiniz. Konu'ya yorum yapın ve sayfayı yenileyin. Reklamsız linkler (en az 3 en fazla 5 link) açılmış olacaktır. Not: Filmbol'a üye olmak tamamen ücretsizdir, en az 3 link kuralı 01.07.2019 tarihinden sonraki paylaşımlar için geçerlidir. Ancak çoğu film için en az bir premium link her zaman bulunur.

Mega

Dosyaco

Dosyaupload

Mediafire

Google Drive
 
Cevapla
  


Konu ile Alakalı Benzer Konular
Konular Yazar Yorumlar Okunma Son Yorum
Filmin Yayınlanma Tarihi: 2018 Ölümcül Makineler (Mortal Engines) Türkçe Dublaj Brrip Xvid İndir BroserBros 0 40 14-07-2019, Saat: 17:31
Son Yorum: BroserBros
Filmin Yayınlanma Tarihi: 2018 Fantastik Canavarlar: Grindelwald'ın Suçları (2018) Türkçe Dublaj Brrip Xvid İn BroserBros 0 46 12-07-2019, Saat: 22:38
Son Yorum: BroserBros
Filmin Yayınlanma Tarihi: 2017 Karayip Korsanları :5 (Pirates Of Caribbean :5) Türkçe Dublaj Brrip-Xvid İndir DRMOV 0 454 30-01-2019, Saat: 18:11
Son Yorum: DRMOV
Filmin Yayınlanma Tarihi: 2011 Karayip Korsanları :4 (Pirates Of Caribbean :4) Türkçe Dublaj Brrip-Xvid İndir BroserBros 0 670 13-09-2018, Saat: 17:27
Son Yorum: BroserBros
Filmin Yayınlanma Tarihi: 2007 Karayip Korsanları :3 (Pirates of Caribbean :3) Türkçe Dublaj Brrip-Xvid İndir BroserBros 0 626 11-09-2018, Saat: 16:33
Son Yorum: BroserBros

Hızlı Menü:


Şu anda bu konuyu okuyanlar: 1 Ziyaretçi