Filmbol Forum Film İndir BRRip XviD v Marriage Story (2019) Türkçe Dublaj Brrip Xvid İndir
Filmbol'da moderatör olmak ister misiniz? Bizimle iletişime geçmek için tıklayın!
Marriage Story (2019) Türkçe Dublaj Brrip Xvid İndir
BroserBros
Marriage Story (2019) Türkçe Dublaj Brrip Xvid İndir
2
664
  • Derecelendirme: 0/5 - 0 oy
  • 1
  • 2
  • 3
  • 4
  • 5
Konuyu Okuyanlar:1 Ziyaretçi
Şuan Online!
Filmin Yayınlanma Tarihi: 2019 
Şuan Online!
BroserBros Kurucu Admin
*******
Admin

indirme türü


Bulut + Premium

Vizyon Tarihi


06 Aralık 2019

Boyutlar


1,39

diller


[TR]

altyazilar


KISIM [Eklenebilir]

Video Format: Avi


Audio Video Interleave (.AVI)

Video Detay


MPEG-4, 1312Kbps, 1,26GB

imdb puanı


8,5 / 10,0 / 6,000

süre


136 dakika

Ses Kodek: MP3


MPEG-1 Audio Layer III (MP3)

Ses Detay


128 Kbps, 2 Kanal, 125 Mb

Editör Puanı


7,3

Genislik Yukseklik


720-404

sürüm


h263 | Brrip Xvid




Marriage Story (2019)


Film Detayları

Marriage Story, evli bir çiftin New York'tan Los Angeles'a kadar uzanan boşanma hikayesini konu ediyor. Evlilkleri parçalanmak üzere olan bir yönetmen ve onun oyuncu olan karısına odaklanılan filmde, çifitn yıpratıcı boşanma süreçleri anlatılıyor.

Marriage Story (2019) Filmi Imdb'den 6,000 kişi tarafından oylandı ve 8,5 puan aldı. Bu film için editör puanı 7,3 olarak belirlendi. İyi Seyirler!


Teknik Detaylar


Kod :
General
Complete name                            : Marriage.Story.2019.HDRip.XViD.TR.Filmbol.avi
Format                                   : AVI
Format/Info                              : Audio Video Interleave
File size                                : 1.39 GiB
Duration                                 : 2h 16mn
Overall bit rate                         : 1 453 Kbps

Video
ID                                       : 0
Format                                   : MPEG-4 Visual
Format profile                           : Advanced Simple@L5
Format settings, BVOP                    : 2
Format settings, QPel                    : No
Format settings, GMC                     : No warppoints
Format settings, Matrix                  : Default (MPEG)
Codec ID                                 : XVID
Codec ID/Hint                            : XviD
Duration                                 : 2h 16mn
Bit rate                                 : 1 312 Kbps
Width                                    : 720 pixels
Height                                   : 404 pixels
Display aspect ratio                     : 16:9
Frame rate                               : 24.000 fps
Color space                              : YUV
Chroma subsampling                       : 4:2:0
Bit depth                                : 8 bits
Scan type                                : Progressive
Compression mode                         : Lossy
Bits/(Pixel*Frame)                       : 0.188
Stream size                              : 1.26 GiB (90%)
Writing library                          : XviD 64

Audio
ID                                       : 1
Format                                   : MPEG Audio
Format version                           : Version 1
Format profile                           : Layer 3
Mode                                     : Joint stereo
Mode extension                           : MS Stereo
Codec ID                                 : 55
Codec ID/Hint                            : MP3
Duration                                 : 2h 16mn
Bit rate mode                            : Constant
Bit rate                                 : 128 Kbps
Channel(s)                               : 2 channels
Sampling rate                            : 48.0 KHz
Compression mode                         : Lossy
Stream size                              : 125 MiB (9%)
Alignment                                : Aligned on interleaves
Interleave, duration                     : 24 ms (0.58 video frame)

Film Detayları


Marriage Story (2019)

Marriage Story (2019)

Marriage Story (2019)


Film Fragmanı


Film Detayları

Brrip İndir



Uptobox ile indir

1Fichier ile indir

1Fichier'den İndiremiyor musun? Tıklayın!


LetsUpload ile indir

Mega ile indir

MediaFire ile indir

Şuan Offine!
Şuan Offine!
komador06 Süper Üye
***
Super Üye

  • Konular0
  • Mesajlar28
  • Rep puanı 0
teşekkürler..
Şuan Offine!
Şuan Offine!
ftpllt2 Yeni Üye
*
Üye

  • Konular0
  • Mesajlar1
  • Rep puanı 0
Tesekkurler


Konu ile Alakalı Benzer Konular
Konular Yazar Yorumlar Okunma Son Yorum
Filmin Yayınlanma Tarihi: 2020
Deathstroke Şövalyeler ve Ejderhalar (Deathstroke Knights & Dragons: The Movie) - 2020 - TR - BRRip XviD BroserBros 0 14 10 saat önce
Son Yorum: BroserBros
Filmin Yayınlanma Tarihi: 2019
15 Dakika Savaş (L'intervention) - 2019 - TR - BRRip XviD BroserBros 0 15 11 saat önce
Son Yorum: BroserBros
Filmin Yayınlanma Tarihi: 2020
Sürprizli Gece (The Sleepover) - 2020 - TR - BRRip XviD BroserBros 0 17 , Saat: 16:18
Son Yorum: BroserBros
Filmin Yayınlanma Tarihi: 2020
Feride (Feride) - 2020 - TR - BRRip XviD BroserBros 0 36 22-11-2020, Saat: 17:58
Son Yorum: BroserBros
Filmin Yayınlanma Tarihi: 2019
Gel Babacığına (Come to Daddy) - 2019 - TR - BRRip XviD BroserBros 0 31 22-11-2020, Saat: 17:43
Son Yorum: BroserBros

Hızlı Menü: