Filmbol Forum Film İndir BRRip XviD v Mamma Mia! Yeniden Başlıyoruz (Mamma Mia! Here We Go Again) - 2018 - TR - BRRip XviD
Moderatör Alımları Başladı! Başvuru yapmak için tıklayın.
Filmbol Premium'da %50'e varan indirim fırsatı!
Mamma Mia! Yeniden Başlıyoruz (Mamma Mia! Here We Go Again) - 2018 - TR - BRRip XviD
BroserBros
Mamma Mia! Yeniden Başlıyoruz (Mamma Mia! Here We Go Again) - 2018 - TR - BRRip XviD
0
118
  • Derecelendirme: 0/5 - 0 oy
  • 1
  • 2
  • 3
  • 4
  • 5
Konuyu Okuyanlar:1 Ziyaretçi
Şuan Online!
Filmin Yayınlanma Tarihi: 2018 
Şuan Online!
BroserBros Kurucu Admin
*******
Admin

Vizyon Tarihi


20 Haziran 2018

imdb puanı


6,7 / 74,000

süre


114 dakika

Editör Puanı


6,9 / 10

Video Format: Avi


Audio Video Interleave (.AVI)

Ses Kodek: MP3


MPEG-1 Audio Layer III (MP3)

sürüm


h263 | BRRip XviD

Boyutlar


1,34 GB



 Mamma Mia! Yeniden Başlıyoruz



Mamma Mia filminin devam kalkası olan Mamma Mia! Yeniden Başlıyoruz filminde yine ana karakter geçmişte ileri geri yaparak geçmişi hakkında bilgi ediniyor. Bu filmde ise ana karekterimiz Sophie geçmişte çok fazla geri giderek annesinin geçmişine kadar ilerliyor ve hamile olduğu güne kadar geliyor...

Mamma Mia! Yeniden Başlıyoruz (2018) (Mamma Mia! Here We Go Again) Filmi Imdb'den 74,000 kişi tarafından oylandı ve 6,7 puan aldı. Bu film için editör puanı 6,9 olarak belirlendi. İyi Seyirler!

Teknik Detaylar

Kod :
General
Complete name                            : /root/Desktop/4/Mamma.Mia.Yeniden.Başlıyoruz.2018.BRRip.XviD.TR.Filmbol.avi
Format                                  : AVI
Format/Info                              : Audio Video Interleave
File size                                : 1.34 GiB
Duration                                : 1h 53mn
Overall bit rate                        : 1 691 Kbps
Writing application                      : VirtualDubMod 1.5.10.2 (build 2542/release) VirtualDubMod build 2542/release

Video
ID                                      : 0
Format                                  : MPEG-4 Visual
Format profile                          : Advanced Simple@L5
Format settings, BVOP                    : 2
Format settings, QPel                    : No
Format settings, GMC                    : No warppoints
Format settings, Matrix                  : Custom
Muxing mode                              : Packed bitstream
Codec ID                                : XVID
Codec ID/Hint                            : XviD
Duration                                : 1h 53mn
Bit rate                                : 1 553 Kbps
Width                                    : 720 pixels
Height                                  : 304 pixels
Display aspect ratio                    : 2.35:1
Frame rate                              : 23.976 (24000/1001) fps
Color space                              : YUV
Chroma subsampling                      : 4:2:0
Bit depth                                : 8 bits
Scan type                                : Progressive
Compression mode                        : Lossy
Bits/(Pixel*Frame)                      : 0.296
Stream size                              : 1.23 GiB (92%)
Writing library                          : XviD 1.2.1 (UTC 2008-12-04)

Audio
ID                                      : 1
Format                                  : MPEG Audio
Format version                          : Version 1
Format profile                          : Layer 3
Mode                                    : Joint stereo
Codec ID                                : 55
Codec ID/Hint                            : MP3
Duration                                : 1h 53mn
Bit rate mode                            : Constant
Bit rate                                : 128 Kbps
Channel(s)                              : 2 channels
Sampling rate                            : 48.0 KHz
Compression mode                        : Lossy
Stream size                              : 104 MiB (8%)
Alignment                                : Aligned on interleaves
Interleave, duration                    : 42 ms (1.00 video frame)
Interleave, preload duration            : 504 ms
Writing library                          : LAME3.98.4
Language                                : Belirsiz

Film Detayları


 Mamma Mia! Yeniden Başlıyoruz

 Mamma Mia! Yeniden Başlıyoruz

 Mamma Mia! Yeniden Başlıyoruz


Film Fragmanı


Film Detayları


Uptobox ile indir

1Fichier ile indir

1Fichier'den İndiremiyor musun? Tıklayın!


Mega ile indir

Bunun için üzgünüz ancak, bu linke sadece premium üyeler erişebilir.

Filmbol Cloud



Konu ile Alakalı Benzer Konular
Konular Yazar Yorumlar Okunma Son Yorum
Filmin Yayınlanma Tarihi: 2014
Lucy (2014) Türkçe Dublaj BRRip XviD İndir BroserBros 1 262 19-09-2020, Saat: 00:56
Son Yorum: sectechno
Filmin Yayınlanma Tarihi: 2020
The Hunt (Av) - 2020 - TR - BRRip XviD BroserBros 0 283 18-09-2020, Saat: 19:28
Son Yorum: BroserBros
Filmin Yayınlanma Tarihi: 2018
Gözbebeğim (Pupille) - 2018 - TR - BRRip XviD BroserBros 0 283 18-09-2020, Saat: 13:02
Son Yorum: BroserBros
Filmin Yayınlanma Tarihi: 2019
Umut Vadisi (Hope Gap) - 2019 - TR - BRRip XviD BroserBros 0 282 18-09-2020, Saat: 12:50
Son Yorum: BroserBros
Filmin Yayınlanma Tarihi: 2019
Cep Herkülü: Naim Süleymanoğlu (Cep Herkülü: Naim Süleymanoğlu) - 2019 - TR - BRRip XviD BroserBros 0 114 15-09-2020, Saat: 21:51
Son Yorum: BroserBros

Hızlı Menü: