Filmbol Forum Film İndir FHD - FULL HD v Malibu Rescue: Yeni Dalga (Malibu Rescue: The Next Wave) - 2020 - TR+ORG - FHD - x264
Moderatör Alımları Başladı! Başvuru yapmak için tıklayın.
Filmbol Premium'da %50'e varan indirim fırsatı!
Malibu Rescue: Yeni Dalga (Malibu Rescue: The Next Wave) - 2020 - TR+ORG - FHD - x264
BroserBros
Malibu Rescue: Yeni Dalga (Malibu Rescue: The Next Wave) - 2020 - TR+ORG - FHD - x264
0
133
  • Derecelendirme: 0/5 - 0 oy
  • 1
  • 2
  • 3
  • 4
  • 5
Konuyu Okuyanlar:1 Ziyaretçi
Şuan Offine!
Filmin Yayınlanma Tarihi: 2020 
Şuan Offine!
BroserBros Kurucu Admin
*******
Admin

Vizyon Tarihi


04 Ağustos 2020

imdb puanı


4,6 / 400

süre


68 dakika

Editör Puanı


4,0 / 10

Video Format: Mkv


Matroska (.MKV)

Ses Kodek: AC3


Audio Coding 3 (AC3)

sürüm


x264 | WEB-DL

Boyutlar


3,91 GB



 Malibu Rescue: Yeni Dalga



Malibu'ya o muhteşem yaz gelmek üzeredir ve herkes denize girmek için sıraya girmektedir. Malibu'da bu kadar denize girilmesi bazı konularda gelişme sağlamaktadır ve bunlardan bir taneside can kurtaranlardır. Hatta Malibu'da bu o kadar önemlidir ki cankurtaranlar için bir musabaka düzenlenir ve kazananlar ödüllendirilir. Bu yılın ABD ekibi gıda zehirlenmesi yaşayınca işler ülkelerini temsil etmek üzere Tyler, Dylan, Eric, Lizzie ve Gina'ya kalır...

Malibu Rescue: Yeni Dalga (2020) (Malibu Rescue: The Next Wave) Filmi Imdb'den 400 kişi tarafından oylandı ve 4,6 puan aldı. Bu film için editör puanı 4,0 olarak belirlendi. İyi Seyirler!

Teknik Detaylar

Kod :
General
Unique ID                                : 223363585679829267105099642432051359439 (0xA80A430648E9DA8964D63ECA64DE2ECF)
Complete name                            : /root/Desktop/3/Malibu.Rescue.The.Next.Wave.2020.FHD.WEB-DL.x264.TR.ENG.Filmbol.mkv
Format                                  : Matroska
Format version                          : Version 4 / Version 2
File size                                : 3.91 GiB
Duration                                : 1h 10mn
Overall bit rate mode                    : Variable
Overall bit rate                        : 7 902 Kbps
Movie name                              : Malibu Rescue: The Next Wave - 2020 | Filmbol.org
Encoded date                            : UTC 2020-09-12 15:01:49
Writing application                      : mkvmerge v8.8.0 ('Wind at my back') 64bit
Writing library                          : libebml v1.3.3 + libmatroska v1.4.4

Video
ID                                      : 1
Format                                  : AVC
Format/Info                              : Advanced Video Codec
Format profile                          : Main@L4
Format settings, CABAC                  : Yes
Format settings, ReFrames                : 3 frames
Codec ID                                : V_MPEG4/ISO/AVC
Duration                                : 1h 10mn
Bit rate mode                            : Variable
Bit rate                                : 7 150 Kbps
Maximum bit rate                        : 10.7 Mbps
Width                                    : 1 920 pixels
Height                                  : 1 080 pixels
Display aspect ratio                    : 16:9
Frame rate mode                          : Constant
Frame rate                              : 23.976 (24000/1001) fps
Color space                              : YUV
Chroma subsampling                      : 4:2:0
Bit depth                                : 8 bits
Scan type                                : Progressive
Bits/(Pixel*Frame)                      : 0.144
Stream size                              : 3.41 GiB (87%)
Title                                    : Filmbol.org
Writing library                          : x264 core 148 r2717 0d2410d
Encoding settings                        : cabac=1 / ref=3 / deblock=1:0:0 / analyse=0x1:0x111 / me=umh / subme=10 / psy=1 / psy_rd=1.00:0.00 / mixed_ref=1 / me_range=24 / chroma_me=1 / trellis=2 / 8x8dct=0 / cqm=0 / deadzone=21,11 / fast_pskip=1 / chroma_qp_offset=-2 / threads=6 / lookahead_threads=1 / sliced_threads=0 / nr=0 / decimate=1 / interlaced=0 / bluray_compat=0 / stitchable=1 / constrained_intra=0 / bframes=2 / b_pyramid=0 / b_adapt=2 / b_bias=0 / direct=3 / weightb=1 / open_gop=0 / weightp=2 / keyint=250 / keyint_min=23 / scenecut=0 / intra_refresh=0 / rc_lookahead=48 / rc=2pass / mbtree=1 / bitrate=7150 / ratetol=1.0 / qcomp=0.50 / qpmin=6 / qpmax=51 / qpstep=4 / cplxblur=20.0 / qblur=0.5 / vbv_maxrate=10725 / vbv_bufsize=14300 / nal_hrd=vbr / filler=0 / ip_ratio=1.40 / aq=1:1.00
Default                                  : Yes
Forced                                  : No

Audio #1
ID                                      : 2
Format                                  : AC-3
Format/Info                              : Audio Coding 3
Mode extension                          : CM (complete main)
Format settings, Endianness              : Big
Codec ID                                : A_AC3
Duration                                : 1h 10mn
Bit rate mode                            : Constant
Bit rate                                : 640 Kbps
Channel(s)                              : 6 channels
Channel positions                        : Front: L C R, Side: L R, LFE
Sampling rate                            : 48.0 KHz
Frame rate                              : 31.250 fps (1536 spf)
Compression mode                        : Lossy
Stream size                              : 325 MiB (8%)
Title                                    : Filmbol.org
Language                                : Turkish
Default                                  : Yes
Forced                                  : No

Audio #2
ID                                      : 3
Format                                  : AC-3
Format/Info                              : Audio Coding 3
Mode extension                          : CM (complete main)
Format settings, Endianness              : Big
Codec ID                                : A_AC3
Duration                                : 1h 10mn
Bit rate mode                            : Constant
Bit rate                                : 384 Kbps
Channel(s)                              : 6 channels
Channel positions                        : Front: L C R, Side: L R, LFE
Sampling rate                            : 48.0 KHz
Frame rate                              : 31.250 fps (1536 spf)
Compression mode                        : Lossy
Stream size                              : 195 MiB (5%)
Title                                    : Filmbol.org
Language                                : English
Default                                  : No
Forced                                  : No

Text #1
ID                                      : 4
Format                                  : UTF-8
Codec ID                                : S_TEXT/UTF8
Codec ID/Info                            : UTF-8 Plain Text
Duration                                : 1h 7mn
Bit rate                                : 1 bps
Count of elements                        : 26
Stream size                              : 735 Bytes (0%)
Title                                    : Filmbol.org
Language                                : Turkish
Default                                  : Yes
Forced                                  : Yes

Text #2
ID                                      : 5
Format                                  : UTF-8
Codec ID                                : S_TEXT/UTF8
Codec ID/Info                            : UTF-8 Plain Text
Duration                                : 1h 7mn
Bit rate                                : 63 bps
Count of elements                        : 961
Stream size                              : 31.4 KiB (0%)
Title                                    : Filmbol.org
Language                                : Turkish
Default                                  : No
Forced                                  : No

Film Detayları


 Malibu Rescue: Yeni Dalga

 Malibu Rescue: Yeni Dalga

 Malibu Rescue: Yeni Dalga


Film Fragmanı


Film Detayları

Uptobox ile indir

1Fichier ile indir

1Fichier'den İndiremiyor musun? Tıklayın!


Mega ile indir

Bunun için üzgünüz ancak, bu linke sadece premium üyeler erişebilir.

Filmbol Cloud



Konu ile Alakalı Benzer Konular
Konular Yazar Yorumlar Okunma Son Yorum
Filmin Yayınlanma Tarihi: 2020
The Hunt (Av) - 2020 - TR+ORG - FHD - x264 BroserBros 0 140 18-09-2020, Saat: 19:29
Son Yorum: BroserBros
Filmin Yayınlanma Tarihi: 2018
Gözbebeğim (Pupille) - 2018 - TR+ORG - FHD - x264 BroserBros 0 145 18-09-2020, Saat: 13:03
Son Yorum: BroserBros
Filmin Yayınlanma Tarihi: 2019
Umut Vadisi (Hope Gap) - 2019 - TR+ORG - FHD - x264 BroserBros 0 139 18-09-2020, Saat: 12:52
Son Yorum: BroserBros
Filmin Yayınlanma Tarihi: 2019
Cep Herkülü: Naim Süleymanoğlu (Cep Herkülü: Naim Süleymanoğlu) - 2019 - TR+ORG - FHD - x264 BroserBros 0 221 15-09-2020, Saat: 21:51
Son Yorum: BroserBros
Filmin Yayınlanma Tarihi: 2020
Berlin, Berlin (Berlin, Berlin) - 2020 - TR+ORG - FHD - x264 BroserBros 0 89 15-09-2020, Saat: 18:18
Son Yorum: BroserBros

Hızlı Menü: