Filmbol Forum Film İndir BRRip XviD v Malibu Rescue: Yeni Dalga (Malibu Rescue: The Next Wave) - 2020 - TR - BRRip XviD
Moderatör Alımları Başladı! Başvuru yapmak için tıklayın.
Filmbol Premium'da %50'e varan indirim fırsatı!
Malibu Rescue: Yeni Dalga (Malibu Rescue: The Next Wave) - 2020 - TR - BRRip XviD
BroserBros
Malibu Rescue: Yeni Dalga (Malibu Rescue: The Next Wave) - 2020 - TR - BRRip XviD
0
143
  • Derecelendirme: 0/5 - 0 oy
  • 1
  • 2
  • 3
  • 4
  • 5
Konuyu Okuyanlar:1 Ziyaretçi
Şuan Offine!
Filmin Yayınlanma Tarihi: 2020 
Şuan Offine!
BroserBros Kurucu Admin
*******
Admin

Vizyon Tarihi


04 Ağustos 2020

imdb puanı


4,6 / 400

süre


68 dakika

Editör Puanı


4,0 / 10

Video Format: Avi


Audio Video Interleave (.AVI)

Ses Kodek: MP3


MPEG-1 Audio Layer III (MP3)

sürüm


h263 | HDRip XviD

Boyutlar


0,84 GB



 Malibu Rescue: Yeni Dalga



Malibu'ya o muhteşem yaz gelmek üzeredir ve herkes denize girmek için sıraya girmektedir. Malibu'da bu kadar denize girilmesi bazı konularda gelişme sağlamaktadır ve bunlardan bir taneside can kurtaranlardır. Hatta Malibu'da bu o kadar önemlidir ki cankurtaranlar için bir musabaka düzenlenir ve kazananlar ödüllendirilir. Bu yılın ABD ekibi gıda zehirlenmesi yaşayınca işler ülkelerini temsil etmek üzere Tyler, Dylan, Eric, Lizzie ve Gina'ya kalır...

Malibu Rescue: Yeni Dalga (2020) (Malibu Rescue: The Next Wave) Filmi Imdb'den 400 kişi tarafından oylandı ve 4,6 puan aldı. Bu film için editör puanı 4,0 olarak belirlendi. İyi Seyirler!

Teknik Detaylar

Kod :
General
Complete name                            : /root/Desktop/3/Malibu.Rescue.The.Next.Wave.2020.HDRip.XViD.TR.Filmbol.avi
Format                                  : AVI
Format/Info                              : Audio Video Interleave
File size                                : 849 MiB
Duration                                : 1h 10mn
Overall bit rate                        : 1 673 Kbps

Video
ID                                      : 0
Format                                  : MPEG-4 Visual
Format profile                          : Simple@L5
Format settings, BVOP                    : No
Format settings, QPel                    : No
Format settings, GMC                    : No warppoints
Format settings, Matrix                  : Default (H.263)
Codec ID                                : XVID
Codec ID/Hint                            : XviD
Duration                                : 1h 10mn
Bit rate                                : 1 532 Kbps
Width                                    : 720 pixels
Height                                  : 360 pixels
Display aspect ratio                    : 2.000
Frame rate                              : 23.976 fps
Color space                              : YUV
Chroma subsampling                      : 4:2:0
Bit depth                                : 8 bits
Scan type                                : Progressive
Compression mode                        : Lossy
Bits/(Pixel*Frame)                      : 0.247
Stream size                              : 777 MiB (92%)
Writing library                          : Lavc58.35.100

Audio
ID                                      : 1
Format                                  : MPEG Audio
Format version                          : Version 1
Format profile                          : Layer 3
Mode                                    : Joint stereo
Mode extension                          : MS Stereo
Codec ID                                : 55
Codec ID/Hint                            : MP3
Duration                                : 1h 10mn
Bit rate mode                            : Constant
Bit rate                                : 128 Kbps
Channel(s)                              : 2 channels
Sampling rate                            : 48.0 KHz
Compression mode                        : Lossy
Stream size                              : 64.9 MiB (8%)
Alignment                                : Aligned on interleaves
Interleave, duration                    : 24 ms (0.58 video frame)

Film Detayları


 Malibu Rescue: Yeni Dalga

 Malibu Rescue: Yeni Dalga

 Malibu Rescue: Yeni Dalga


Film Fragmanı


Film Detayları


Uptobox ile indir

1Fichier ile indir

1Fichier'den İndiremiyor musun? Tıklayın!


Mega ile indir

Bunun için üzgünüz ancak, bu linke sadece premium üyeler erişebilir.

Filmbol Cloud



Konu ile Alakalı Benzer Konular
Konular Yazar Yorumlar Okunma Son Yorum
Filmin Yayınlanma Tarihi: 2014
Lucy (2014) Türkçe Dublaj BRRip XviD İndir BroserBros 1 254 19-09-2020, Saat: 00:56
Son Yorum: sectechno
Filmin Yayınlanma Tarihi: 2020
The Hunt (Av) - 2020 - TR - BRRip XviD BroserBros 0 143 18-09-2020, Saat: 19:28
Son Yorum: BroserBros
Filmin Yayınlanma Tarihi: 2018
Gözbebeğim (Pupille) - 2018 - TR - BRRip XviD BroserBros 0 140 18-09-2020, Saat: 13:02
Son Yorum: BroserBros
Filmin Yayınlanma Tarihi: 2019
Umut Vadisi (Hope Gap) - 2019 - TR - BRRip XviD BroserBros 0 142 18-09-2020, Saat: 12:50
Son Yorum: BroserBros
Filmin Yayınlanma Tarihi: 2019
Cep Herkülü: Naim Süleymanoğlu (Cep Herkülü: Naim Süleymanoğlu) - 2019 - TR - BRRip XviD BroserBros 0 104 15-09-2020, Saat: 21:51
Son Yorum: BroserBros

Hızlı Menü: