Filmbol Forum Film İndir UHD - ULTRA HD - 4K v Malefiz: Kötülüğün Gücü (Maleficent: Mistress of Evil) Türkçe Dublaj BLURAY DUAL 4K
Mega linklerinin şikayet edilmemesi için global erişime kapatıp sadece yorum yapanlara açıyoruz. Bu linkleri gizleme işlemini mecburen yapıyoruz ve yorum yapmanızın siteye değil size faydası vardır. Teşekürler yazmayı çok görüp, Random/Spam mesajlar atarak Mega linklerini açmaya çalışan kullanıcılara önce süresiz ban, devam ederse IP ban atacağız.
Filmbol'da moderatör olmak ister misiniz? Bizimle iletişime geçmek için tıklayın!
Malefiz: Kötülüğün Gücü (Maleficent: Mistress of Evil) Türkçe Dublaj BLURAY DUAL 4K
BroserBros
Malefiz: Kötülüğün Gücü (Maleficent: Mistress of Evil) Türkçe Dublaj BLURAY DUAL 4K
3
383
  • Derecelendirme: 0/5 - 0 oy
  • 1
  • 2
  • 3
  • 4
  • 5
Konuyu Okuyanlar:1 Ziyaretçi
Şuan Online!
Filmin Yayınlanma Tarihi: 2019 
WWW
Şuan Online!
BroserBros Kurucu Admin
*******
Admin








 Malefiz: Kötülüğün Gücü



Malefiz: Kötülüğün Gücü, Malefiz ve Aurora arasındaki karmaşık ilişkiye odaklanıyor. Yıllar Maleficent ve Aurora'ya iyi davranmıştır. İlişkileri kalp kırıklıklarından, intikam öyküsüne ve sonunda sevgiye dönüşür. Ancak hala insanlar ve periler arasındaki nefret ilişkisi sürmektedir. Aurora'nın Prens Phillip ile gerçekleşecek olan evliliği, iki bölgenin birliğini sağlayacağı için Ulstead ve Moors Krallığı'nda kutlanır. Beklenmedik bir karşılaşma ise yeni ittifakları da beraberinde getirir. Büyük Savaş içerisinde Maleficent ve Aurora ise ayrı düşer. Sadakatlerini test eden bu durum, ikisinin gerçek bir aile olup olmadıklarını sorgulamalarına neden olur.

Malefiz: Kötülüğün Gücü (2019) (Maleficent: Mistress of Evil) Filmi Imdb'den 55,000 kişi tarafından oylandı ve 6,7 puan aldı. Bu film için editör puanı 7,0 olarak belirlendi. İyi Seyirler!

Teknik Detaylar

Kod :
General
Unique ID                                : 902049906954393041911148796444923815 (0xADBA7E7F9BEFBB8673E8B29A43D7A7)
Complete name                            : /root/Desktop/6/Malefiz.Kötülüğün.Gücü.2019.4K.BluRay.x265.DUAL.TR-ENG.Filmbol.mkv
Format                                   : Matroska
Format version                           : Version 4 / Version 2
File size                                : 4.56 GiB
Duration                                 : 1h 58mn
Overall bit rate                         : 5 491 Kbps
Movie name                               : Malefiz: Kötülügün Gücü (2019) - Filmbol.org
Encoded date                             : UTC 2020-02-12 13:54:12
Writing application                      : mkvmerge v35.0.0 ('All The Love In The World') 64-bit
Writing library                          : libebml v1.3.9 + libmatroska v1.5.2

Video
ID                                       : 1
Format                                   : HEVC
Format/Info                              : High Efficiency Video Coding
Format profile                           : [email protected]@Main
Codec ID                                 : V_MPEGH/ISO/HEVC
Duration                                 : 1h 58mn
Bit rate                                 : 5 105 Kbps
Width                                    : 3 840 pixels
Height                                   : 2 160 pixels
Display aspect ratio                     : 16:9
Frame rate mode                          : Constant
Frame rate                               : 23.976 (24000/1001) fps
Color space                              : YUV
Chroma subsampling                       : 4:2:0
Bit depth                                : 8 bits
Bits/(Pixel*Frame)                       : 0.026
Stream size                              : 4.24 GiB (93%)
Title                                    : 4K - Filmbol.org
Writing library                          : x265 3.2+20-a4e060a44839:[Linux][GCC 7.4.0][64 bit] 8bit
Encoding settings                        : cpuid=1111039 / frame-threads=3 / wpp / no-pmode / no-pme / no-psnr / no-ssim / log-level=2 / input-csp=1 / input-res=3840x2160 / interlace=0 / total-frames=0 / level-idc=0 / high-tier=1 / uhd-bd=0 / ref=4 / no-allow-non-conformance / no-repeat-headers / annexb / no-aud / no-hrd / info / hash=0 / no-temporal-layers / open-gop / min-keyint=23 / keyint=250 / gop-lookahead=0 / bframes=4 / b-adapt=2 / b-pyramid / bframe-bias=0 / rc-lookahead=25 / lookahead-slices=4 / scenecut=40 / hist-scenecut=0 / radl=0 / no-splice / no-intra-refresh / ctu=64 / min-cu-size=8 / rect / no-amp / max-tu-size=32 / tu-inter-depth=1 / tu-intra-depth=1 / limit-tu=0 / rdoq-level=2 / dynamic-rd=0.00 / no-ssim-rd / signhide / no-tskip / nr-intra=0 / nr-inter=0 / no-constrained-intra / strong-intra-smoothing / max-merge=3 / limit-refs=3 / limit-modes / me=3 / subme=3 / merange=57 / temporal-mvp / no-frame-dup / no-hme / weightp / no-weightb / no-analyze-src-pics / deblock=0:0 / sao / no-sao-non-deblock / rd=4 / selective-sao=4 / no-early-skip / rskip / no-fast-intra / no-tskip-fast / no-cu-lossless / no-b-intra / no-splitrd-skip / rdpenalty=0 / psy-rd=2.00 / psy-rdoq=1.00 / no-rd-refine / no-lossless / cbqpoffs=0 / crqpoffs=0 / rc=crf / crf=23.0 / qcomp=0.60 / qpstep=4 / stats-write=0 / stats-read=0 / ipratio=1.40 / pbratio=1.30 / aq-mode=2 / aq-strength=1.00 / cutree / zone-count=0 / no-strict-cbr / qg-size=32 / no-rc-grain / qpmax=69 / qpmin=0 / no-const-vbv / sar=1 / overscan=0 / videoformat=5 / range=0 / colorprim=2 / transfer=2 / colormatrix=2 / chromaloc=0 / display-window=0 / cll=0,0 / min-luma=0 / max-luma=255 / log2-max-poc-lsb=8 / vui-timing-info / vui-hrd-info / slices=1 / no-opt-qp-pps / no-opt-ref-list-length-pps / no-multi-pass-opt-rps / scenecut-bias=0.05 / hist-threshold=0.01 / no-opt-cu-delta-qp / no-aq-motion / no-hdr / no-hdr-opt / no-dhdr10-opt / no-idr-recovery-sei / analysis-reuse-level=5 / scale-factor=0 / refine-intra=0 / refine-inter=0 / refine-mv=1 / refine-ctu-distortion=0 / no-limit-sao / ctu-info=0 / no-lowpass-dct / refine-analysis-type=0 / copy-pic=1 / max-ausize-factor=1.0 / no-dynamic-refine / no-single-sei / no-hevc-aq / no-svt / no-field / qp-adaptation-range=1.00 / no-scenecut-aware-qp
Default                                  : Yes
Forced                                   : No
Color range                              : Limited

Audio
ID                                       : 2
Format                                   : AC-3
Format/Info                              : Audio Coding 3
Mode extension                           : CM (complete main)
Format settings, Endianness              : Big
Codec ID                                 : A_AC3
Duration                                 : 1h 58mn
Bit rate mode                            : Constant
Bit rate                                 : 384 Kbps
Channel(s)                               : 6 channels
Channel positions                        : Front: L C R, Side: L R, LFE
Sampling rate                            : 48.0 KHz
Frame rate                               : 31.250 fps (1536 spf)
Compression mode                         : Lossy
Stream size                              : 326 MiB (7%)
Title                                    : Türkçe - Filmbol.org
Language                                 : Turkish
Default                                  : Yes
Forced                                   : No

Text
ID                                       : 3
Format                                   : UTF-8
Codec ID                                 : S_TEXT/UTF8
Codec ID/Info                            : UTF-8 Plain Text
Duration                                 : 7s 7ms
Bit rate                                 : 35 bps
Count of elements                        : 1
Stream size                              : 31.0 Bytes (0%)
Title                                    : KISIM
Language                                 : Turkish
Default                                  : Yes
Forced                                   : Yes

Film Detayları


 Malefiz: Kötülüğün Gücü

 Malefiz: Kötülüğün Gücü

 Malefiz: Kötülüğün Gücü


Film Fragmanı


Film Detayları

Mini 3D İndir

Uptobox ile indir

1Fichier ile indir

1Fichier'den İndiremiyor musun? Tıklayın!


Mega linki şuan da gizli. Kullanıma açmak için konuya yorum yapın ve ardından sayfayı yenileyin.

Mega


MediaFire ile indir

Şuan Offine!
Şuan Offine!
caner Süper Üye
***
Super Üye

  • Konular0
  • Mesajlar52
  • Rep puanı 0
teşekkürler
Şuan Offine!
Şuan Offine!
ebru Yeni Üye
*
Üye

  • Konular0
  • Mesajlar4
  • Rep puanı 0
teşekkürler
Şuan Offine!
Şuan Offine!
kartal2552 Yeni Üye
*
Üye

  • Konular0
  • Mesajlar2
  • Rep puanı 0
tşk ederim


Konu ile Alakalı Benzer Konular
Konular Yazar Yorumlar Okunma Son Yorum
Filmin Yayınlanma Tarihi: 1994
Sevginin Gücü (Léon: The Professional) - 1994 - TR+ORG - UHD (4K) - 10Bit-x265 | tt0110413 BroserBros 0 37 27-02-2021, Saat: 17:53
Son Yorum: BroserBros
Filmin Yayınlanma Tarihi: 2007
Ben Efsaneyim (I Am Legend) Türkçe Dublaj BLURAY DUAL 4K indir BroserBros 0 329 24-03-2020, Saat: 21:18
Son Yorum: BroserBros
Filmin Yayınlanma Tarihi: 2019
Tavşan Jojo (Jojo Rabbit) Türkçe Dublaj BLURAY DUAL 4K indir BroserBros 0 334 19-03-2020, Saat: 21:15
Son Yorum: BroserBros
Filmin Yayınlanma Tarihi: 2017
Dünya: Muhteşem Bir Gün (Earth: One Amazing Day) Türkçe Dublaj BLURAY DUAL 4K indir BroserBros 1 369 13-03-2020, Saat: 11:15
Son Yorum: cucuk
Filmin Yayınlanma Tarihi: 2019
Asfaltın Kralları (Ford v Ferrari) Türkçe Dublaj BLURAY DUAL 4K indir BroserBros 3 358 13-03-2020, Saat: 11:12
Son Yorum: cucuk

Hızlı Menü: