Filmbol Forum Film İndir 1080P v Malefiz: Kötülüğün Gücü (Maleficent: Mistress of Evil) Türkçe Dublaj BLURAY 1080P ind
Mega linklerinin şikayet edilmemesi için global erişime kapatıp sadece yorum yapanlara açıyoruz. Bu linkleri gizleme işlemini mecburen yapıyoruz ve yorum yapmanızın siteye değil size faydası vardır. Teşekürler yazmayı çok görüp, Random/Spam mesajlar atarak Mega linklerini açmaya çalışan kullanıcılara önce süresiz ban, devam ederse IP ban atacağız.
Filmbol'da moderatör olmak ister misiniz? Bizimle iletişime geçmek için tıklayın!
Malefiz: Kötülüğün Gücü (Maleficent: Mistress of Evil) Türkçe Dublaj BLURAY 1080P ind
BroserBros
Malefiz: Kötülüğün Gücü (Maleficent: Mistress of Evil) Türkçe Dublaj BLURAY 1080P ind
7
497
  • Derecelendirme: 0/5 - 0 oy
  • 1
  • 2
  • 3
  • 4
  • 5
Konuyu Okuyanlar:1 Ziyaretçi
Şuan Online!
Filmin Yayınlanma Tarihi: 2019 
WWW
Şuan Online!
BroserBros Kurucu Admin
*******
Admin








 Malefiz: Kötülüğün Gücü



Malefiz: Kötülüğün Gücü, Malefiz ve Aurora arasındaki karmaşık ilişkiye odaklanıyor. Yıllar Maleficent ve Aurora'ya iyi davranmıştır. İlişkileri kalp kırıklıklarından, intikam öyküsüne ve sonunda sevgiye dönüşür. Ancak hala insanlar ve periler arasındaki nefret ilişkisi sürmektedir. Aurora'nın Prens Phillip ile gerçekleşecek olan evliliği, iki bölgenin birliğini sağlayacağı için Ulstead ve Moors Krallığı'nda kutlanır. Beklenmedik bir karşılaşma ise yeni ittifakları da beraberinde getirir. Büyük Savaş içerisinde Maleficent ve Aurora ise ayrı düşer. Sadakatlerini test eden bu durum, ikisinin gerçek bir aile olup olmadıklarını sorgulamalarına neden olur.

Malefiz: Kötülüğün Gücü (2019) (Maleficent: Mistress of Evil) Filmi Imdb'den 55,000 kişi tarafından oylandı ve 6,7 puan aldı. Bu film için editör puanı 7,0 olarak belirlendi. İyi Seyirler!

Teknik Detaylar

Kod :
General
Unique ID                                : 126064125748870734358471867755468996520 (0x5ED71145AA98CD7DF3B67F11E448BFA8)
Complete name                            : /root/Desktop/6/Malefiz.Kötülüğün.Gücü.2019.1080p.BluRay.x264.TR.Filmbol.mkv
Format                                   : Matroska
Format version                           : Version 4 / Version 2
File size                                : 2.06 GiB
Duration                                 : 1h 58mn
Overall bit rate                         : 2 485 Kbps
Movie name                               : Malefiz: Kötülügün Gücü (2019) - Filmbol.org
Encoded date                             : UTC 2020-02-12 13:52:27
Writing application                      : mkvmerge v35.0.0 ('All The Love In The World') 64-bit
Writing library                          : libebml v1.3.9 + libmatroska v1.5.2

Video
ID                                       : 1
Format                                   : AVC
Format/Info                              : Advanced Video Codec
Format profile                           : [email protected]
Format settings, CABAC                   : Yes
Format settings, ReFrames                : 4 frames
Codec ID                                 : V_MPEG4/ISO/AVC
Duration                                 : 1h 58mn
Bit rate                                 : 2 100 Kbps
Width                                    : 1 920 pixels
Height                                   : 800 pixels
Display aspect ratio                     : 2.40:1
Frame rate mode                          : Constant
Frame rate                               : 23.976 (24000/1001) fps
Color space                              : YUV
Chroma subsampling                       : 4:2:0
Bit depth                                : 8 bits
Scan type                                : Progressive
Bits/(Pixel*Frame)                       : 0.057
Stream size                              : 1.74 GiB (84%)
Title                                    : 1080P - Filmbol.org
Writing library                          : x264 core 158
Encoding settings                        : cabac=1 / ref=4 / deblock=1:-1:-1 / analyse=0x3:0x133 / me=umh / subme=9 / psy=1 / psy_rd=1.00:0.15 / mixed_ref=1 / me_range=24 / chroma_me=1 / trellis=2 / 8x8dct=1 / cqm=0 / deadzone=21,11 / fast_pskip=0 / chroma_qp_offset=-3 / threads=18 / lookahead_threads=1 / sliced_threads=0 / nr=0 / decimate=1 / interlaced=0 / bluray_compat=0 / constrained_intra=0 / bframes=3 / b_pyramid=2 / b_adapt=2 / b_bias=0 / direct=3 / weightb=1 / open_gop=0 / weightp=2 / keyint=250 / keyint_min=23 / scenecut=40 / intra_refresh=0 / rc_lookahead=60 / rc=2pass / mbtree=1 / bitrate=2100 / ratetol=1.0 / qcomp=0.60 / qpmin=0 / qpmax=69 / qpstep=4 / cplxblur=20.0 / qblur=0.5 / vbv_maxrate=31250 / vbv_bufsize=31250 / nal_hrd=none / filler=0 / ip_ratio=1.40 / aq=1:1.00
Default                                  : Yes
Forced                                   : No

Audio
ID                                       : 2
Format                                   : AC-3
Format/Info                              : Audio Coding 3
Mode extension                           : CM (complete main)
Format settings, Endianness              : Big
Codec ID                                 : A_AC3
Duration                                 : 1h 58mn
Bit rate mode                            : Constant
Bit rate                                 : 384 Kbps
Channel(s)                               : 6 channels
Channel positions                        : Front: L C R, Side: L R, LFE
Sampling rate                            : 48.0 KHz
Frame rate                               : 31.250 fps (1536 spf)
Compression mode                         : Lossy
Stream size                              : 326 MiB (15%)
Title                                    : Türkçe - Filmbol.org
Language                                 : Turkish
Default                                  : Yes
Forced                                   : No

Text
ID                                       : 3
Format                                   : UTF-8
Codec ID                                 : S_TEXT/UTF8
Codec ID/Info                            : UTF-8 Plain Text
Duration                                 : 7s 7ms
Bit rate                                 : 35 bps
Count of elements                        : 1
Stream size                              : 31.0 Bytes (0%)
Title                                    : KISIM
Language                                 : Turkish
Default                                  : Yes
Forced                                   : Yes

Film Detayları


 Malefiz: Kötülüğün Gücü

 Malefiz: Kötülüğün Gücü

 Malefiz: Kötülüğün Gücü


Film Fragmanı


Film Detayları

Mini 1080P İndir

Uptobox ile indir

1Fichier ile indir

1Fichier'den İndiremiyor musun? Tıklayın!


Mega linki şuan da gizli. Kullanıma açmak için konuya yorum yapın ve ardından sayfayı yenileyin.

Mega


MediaFire ile indir

Şuan Offine!
Şuan Offine!
kimsinsen Uzman Üye
**
Uzman Üye

  • Konular0
  • Mesajlar13
  • Rep puanı 0
Harika uzun zamandır bekliyorduk
Şuan Offine!
Şuan Offine!
Hturk5690 Yeni Üye
*
Üye

  • Konular0
  • Mesajlar2
  • Rep puanı 0
bakalım ne kadar iyiymiş
Şuan Offine!
Şuan Offine!
Filmmakinası Yeni Üye
*
Üye

  • Konular0
  • Mesajlar3
  • Rep puanı 0
mükemmel bi film teşekkürlrt
Şuan Offine!
Şuan Offine!
atunga55 Yeni Üye
*
Üye

  • Konular0
  • Mesajlar4
  • Rep puanı 0
teşekkürler
Şuan Offine!
Şuan Offine!
Rustu_1905 Uzman Üye
**
Uzman Üye

  • Konular0
  • Mesajlar14
  • Rep puanı 0
en sonunda
Şuan Offine!
Şuan Offine!
HBardakcı Yeni Üye
*
Üye

  • Konular0
  • Mesajlar5
  • Rep puanı 0
Thanks
Şuan Offine!
Şuan Offine!
Grazes Yeni Üye
*
Üye

  • Konular0
  • Mesajlar5
  • Rep puanı 0
güzel


Konu ile Alakalı Benzer Konular
Konular Yazar Yorumlar Okunma Son Yorum
Filmin Yayınlanma Tarihi: 2016
The Nice Guys: İyi Adamlar (2016) Türkçe Dublaj 1080P İndir BroserBros 4 1,316 5 saat önce
Son Yorum: ANDREMEDAN
Filmin Yayınlanma Tarihi: 2014
Madagaskar Penguenleri (Penguins of Madagascar) Türkçe Dublaj BLURAY 1080P İndir BroserBros 3 711 8 saat önce
Son Yorum: Omertrans505
Filmin Yayınlanma Tarihi: 2020
Her Zaman Şeytan (The Devil All the Time) - 2020 - TR+ORG - 1080P | tt7395114 TheSteeL 0 17 9 saat önce
Son Yorum: TheSteeL
Filmin Yayınlanma Tarihi: 2020
Baba Aranıyor (Se busca papá) - 2020 - TR+ORG - 1080P | tt12721188 TheSteeL 0 19 9 saat önce
Son Yorum: TheSteeL
Filmin Yayınlanma Tarihi: 2019
Beyaz Kentin Sessizliği (El silencio de la ciudad blanca) - 2019 - TR+ORG - 1080P | tt8393332 BroserBros 1 255 , Saat: 15:38
Son Yorum: BroserBros

Hızlı Menü: