Filmbol Forum Film İndir BRRip XviD v Madagaskar Penguenleri (Penguins of Madagascar) Türkçe Dublaj BRRip XviD İndir
Mega linklerinin şikayet edilmemesi için global erişime kapatıp sadece yorum yapanlara açıyoruz. Bu linkleri gizleme işlemini mecburen yapıyoruz ve yorum yapmanızın siteye değil size faydası vardır. Teşekürler yazmayı çok görüp, Random/Spam mesajlar atarak Mega linklerini açmaya çalışan kullanıcılara önce süresiz ban, devam ederse IP ban atacağız.
Filmbol'da moderatör olmak ister misiniz? Bizimle iletişime geçmek için tıklayın!
Madagaskar Penguenleri (Penguins of Madagascar) Türkçe Dublaj BRRip XviD İndir
BroserBros
Madagaskar Penguenleri (Penguins of Madagascar) Türkçe Dublaj BRRip XviD İndir
1
504
  • Derecelendirme: 0/5 - 0 oy
  • 1
  • 2
  • 3
  • 4
  • 5
Konuyu Okuyanlar:1 Ziyaretçi
Şuan Online!
Filmin Yayınlanma Tarihi: 2014 
WWW
Şuan Online!
BroserBros Kurucu Admin
*******
Admin








 Madagaskar Penguenleri



Başarılı ajan doğulmaz. Çünkü başarılı ajanlar yumurtadan çıkar! Madagascar'ın muhteşem ajanlarıyla tanışın: Skipper, Kowalski, Rico and Private.Bu seçkin penguenler, gizli bir örgütün kuvvetlerine katılırlar. İsmi Kuzey Rüzgarı olan bu organizasyona lideri yakışıklı ve kuvvetli ismi gizli bir Ajan (bize kalsa ismini söyleyeceğiz de...sonra yani..bilirsiniz) liderlik etmektedir. Bu iki takımın bir an önce güçlerini birleştirip dünyayı yok etmek için hain planlar peşinde olan korkunç Dr. Octavius Brine'ı durdurması gerekmektedir.
Madagaskar serisinin sevilen Penguenleri Skipper, Kowalski, Rico ve Private'in casusluk macerasına odaklanacağımız filmin orijinal seslendirme kadrosunda Benedict Cumberbatch, Eric Darnell, John Malkovich ve Simon J. Smith yer alıyor.

Madagaskar Penguenleri (2014) (Penguins of Madagascar) Filmi Imdb'den 75,000 kişi tarafından oylandı ve 6,7 puan aldı. Bu film için editör puanı 6,5 olarak belirlendi. İyi Seyirler!

Teknik Detaylar

Kod :
General
Complete name                            : /root/Desktop/11/Madagaskar.Penguenleri.2014.TR.BRRip.XviD.TR.Filmbol.avi
Format                                   : AVI
Format/Info                              : Audio Video Interleave
File size                                : 1.62 GiB
Duration                                 : 1h 31mn
Overall bit rate                         : 2 520 Kbps

Video
ID                                       : 0
Format                                   : AVC
Format/Info                              : Advanced Video Codec
Format profile                           : [email protected]
Format settings, CABAC                   : No
Format settings, ReFrames                : 1 frame
Format settings, GOP                     : M=1, N=12
Codec ID                                 : AVC1
Duration                                 : 1h 31mn
Bit rate                                 : 2 379 Kbps
Width                                    : 720 pixels
Height                                   : 388 pixels
Display aspect ratio                     : 1.85:1
Frame rate mode                          : Variable
Frame rate                               : 23.976 fps
Color space                              : YUV
Chroma subsampling                       : 4:2:0
Bit depth                                : 8 bits
Scan type                                : Progressive
Bits/(Pixel*Frame)                       : 0.355
Stream size                              : 1.53 GiB (94%)

Audio
ID                                       : 1
Format                                   : MPEG Audio
Format version                           : Version 1
Format profile                           : Layer 3
Codec ID                                 : 55
Codec ID/Hint                            : MP3
Duration                                 : 1h 31mn
Bit rate mode                            : Constant
Bit rate                                 : 128 Kbps
Channel(s)                               : 2 channels
Sampling rate                            : 48.0 KHz
Compression mode                         : Lossy
Stream size                              : 84.1 MiB (5%)
Alignment                                : Aligned on interleaves
Interleave, duration                     : 24 ms (0.58 video frame)

Film Detayları


 Madagaskar Penguenleri

 Madagaskar Penguenleri

 Madagaskar Penguenleri


Film Fragmanı


Film Detayları

Brrip İndir

Uptobox ile indir

1Fichier ile indir

1Fichier'den İndiremiyor musun? Tıklayın!


Mega linki şuan da gizli. Kullanıma açmak için konuya yorum yapın ve ardından sayfayı yenileyin.

Mega


MediaFire ile indir

Şuan Offine!
Şuan Offine!
yasakral Yeni Üye
*
Üye

  • Konular0
  • Mesajlar5
  • Rep puanı 0
bakacağız


Konu ile Alakalı Benzer Konular
Konular Yazar Yorumlar Okunma Son Yorum
  Her Zaman Şeytan (The Devil All the Time) - 2020 - TR - BRRip XviD | tt7395114 TheSteeL 0 24 11 saat önce
Son Yorum: TheSteeL
Filmin Yayınlanma Tarihi: 2020
Baba Aranıyor (Se busca papá) - 2020 - TR - BRRip XviD | tt12721188 TheSteeL 0 21 , Saat: 21:12
Son Yorum: TheSteeL
Filmin Yayınlanma Tarihi: 1999
Yeşil Yol (The Green Mile) - 1999 - TR - BRRip XviD | tt0120689 BroserBros 2 246 , Saat: 15:54
Son Yorum: Furkan61
Filmin Yayınlanma Tarihi: 2019
Beyaz Kentin Sessizliği (El silencio de la ciudad blanca) - 2019 - TR - BRRip XviD | tt8393332 BroserBros 1 245 , Saat: 15:38
Son Yorum: BroserBros
Filmin Yayınlanma Tarihi: 2014
Frankenstein: Ölümsüzlerin Savaşı (I, Frankenstein) - 2014 - TR - BRRip XviD | tt1418377 BroserBros 2 296 , Saat: 15:29
Son Yorum: BroserBros

Hızlı Menü: