Filmbol Forum Film İndir BRRip XviD v Ma (2019) Türkçe Dublaj Brrip Xvid İndir
Filmbol'da moderatör olmak ister misiniz? Bizimle iletişime geçmek için tıklayın!
Ma (2019) Türkçe Dublaj Brrip Xvid İndir
BroserBros
Ma (2019) Türkçe Dublaj Brrip Xvid İndir
0
267
  • Derecelendirme: 0/5 - 0 oy
  • 1
  • 2
  • 3
  • 4
  • 5
Konuyu Okuyanlar:1 Ziyaretçi
Şuan Online!
Filmin Yayınlanma Tarihi: 2019 
Şuan Online!
BroserBros Kurucu Admin
*******
Admin

indirme türü


Bulut + Premium

Vizyon Tarihi


31 Mayıs 2019

Boyutlar


1,07

diller


[TR]

altyazilar


KISIM [Eklenebilir]

Video Format: Avi


Audio Video Interleave (.AVI)

Video Detay


MPEG-4, 1402 Kbps, 0,99GB

imdb puanı


5,6 / 10,0 / 23,000

süre


99 dakika

Ses Kodek: MP3


MPEG-1 Audio Layer III (MP3)

Ses Detay


128 Kbps, 2 Kanal, 91Mb

Editör Puanı


5,2

Genislik Yukseklik


720-302

sürüm


h263 | Brrip Xvid




Ma


Film Detayları

Ma, orta yaşlarındaki bir kadın ile arkadaşlık kuran bir grup gencin başlarına gelen olayları konu ediyor. Ohio’da yaşayan Sue Ann, kendi dünyasında yaşayan, orta yaşlardaki yalnız bir kadındır. Sue,bir gün kasabaya yakın zamanda taşınmış olan Maggie adında bir kız ve onun arkadaşları ile tanışır. Aileleri ile birlikte yaşayan gençler, üzerlerindeki baskıdan fazlasıyla bunalmıştır. Tam da bu sırada evinde büyük bir parti düzenleyen Sue, gençlerin de aralarına katılmasını ister. Bu davet Maggie ve arkadaşları için kaçırılmayacak bir fırsattır. Gençler, başlarına geleceklerden bihaber, partide Sue ile birlikte gönüllerince eğlenir. Sue ile tanıştıkları için kendilerini şanslı hisseden gençler, zaman geçtikçe bir takım tuhaf şeyler yaşamaya başlar. Sue’nun gösterdiği yakınlık, bir süre sonra takıntılı bir hal almaya başlayınca, gençler kendilerini büyük bir girdabın içerisinde bulur.

Ma (2019) Filmi Imdb'den 23,000 kişi tarafından oylandı ve 5,6 puan aldı. Bu film için editör puanı 5,2 olarak belirlendi. İyi Seyirler!


Teknik Detaylar


Kod :
General
Complete name                            : Ma.2019.BRRip.XviD.TR.Filmbol.avi
Format                                   : AVI
Format/Info                              : Audio Video Interleave
File size                                : 1.07 GiB
Duration                                 : 1h 39mn
Overall bit rate                         : 1 543 Kbps

Video
ID                                       : 0
Format                                   : MPEG-4 Visual
Format profile                           : Simple@L5
Format settings, BVOP                    : No
Format settings, QPel                    : No
Format settings, GMC                     : No warppoints
Format settings, Matrix                  : Default (H.263)
Codec ID                                 : XVID
Codec ID/Hint                            : XviD
Duration                                 : 1h 39mn
Bit rate                                 : 1 402 Kbps
Width                                    : 720 pixels
Height                                   : 302 pixels
Display aspect ratio                     : 2.40:1
Frame rate                               : 23.976 fps
Color space                              : YUV
Chroma subsampling                       : 4:2:0
Bit depth                                : 8 bits
Scan type                                : Progressive
Compression mode                         : Lossy
Bits/(Pixel*Frame)                       : 0.269
Stream size                              : 996 MiB (91%)
Writing library                          : Lavc58.35.100

Audio
ID                                       : 1
Format                                   : MPEG Audio
Format version                           : Version 1
Format profile                           : Layer 3
Mode                                     : Joint stereo
Codec ID                                 : 55
Codec ID/Hint                            : MP3
Duration                                 : 1h 39mn
Bit rate mode                            : Constant
Bit rate                                 : 128 Kbps
Channel(s)                               : 2 channels
Sampling rate                            : 48.0 KHz
Compression mode                         : Lossy
Stream size                              : 91.0 MiB (8%)
Alignment                                : Aligned on interleaves
Interleave, duration                     : 24 ms (0.58 video frame)
Writing library                          : LAME3.99.5

Film Detayları


Ma

Ma

Ma


Film Fragmanı


Film Detayları

Brrip İndir


Uptobox ile indir

LetsUpload ile indir

jpK2

Mega ile indir

MediaFire ile indir



Konu ile Alakalı Benzer Konular
Konular Yazar Yorumlar Okunma Son Yorum
Filmin Yayınlanma Tarihi: 2020
Deathstroke Şövalyeler ve Ejderhalar (Deathstroke Knights & Dragons: The Movie) - 2020 - TR - BRRip XviD BroserBros 0 45 23-11-2020, Saat: 18:30
Son Yorum: BroserBros
Filmin Yayınlanma Tarihi: 2019
15 Dakika Savaş (L'intervention) - 2019 - TR - BRRip XviD BroserBros 0 45 23-11-2020, Saat: 17:42
Son Yorum: BroserBros
Filmin Yayınlanma Tarihi: 2020
Sürprizli Gece (The Sleepover) - 2020 - TR - BRRip XviD BroserBros 0 46 23-11-2020, Saat: 16:18
Son Yorum: BroserBros
Filmin Yayınlanma Tarihi: 2020
Feride (Feride) - 2020 - TR - BRRip XviD BroserBros 0 39 22-11-2020, Saat: 17:58
Son Yorum: BroserBros
Filmin Yayınlanma Tarihi: 2019
Gel Babacığına (Come to Daddy) - 2019 - TR - BRRip XviD BroserBros 0 35 22-11-2020, Saat: 17:43
Son Yorum: BroserBros

Hızlı Menü: