Filmbol Forum Film İndir 1080P v Ma (2019) Türkçe Dublaj BLURAY m1080P İndir
Filmbol'da moderatör olmak ister misiniz? Bizimle iletişime geçmek için tıklayın!
Ma (2019) Türkçe Dublaj BLURAY m1080P İndir
BroserBros
Ma (2019) Türkçe Dublaj BLURAY m1080P İndir
3
429
  • Derecelendirme: 0/5 - 0 oy
  • 1
  • 2
  • 3
  • 4
  • 5
Konuyu Okuyanlar:1 Ziyaretçi
Şuan Online!
Filmin Yayınlanma Tarihi: 2019 
Şuan Online!
BroserBros Kurucu Admin
*******
Admin

indirme türü


Bulut + Premium

Vizyon Tarihi


31 Mayıs 2019

Boyutlar


1,72

diller


[TR]

altyazilar


KISIM [Eklenebilir]

Video Format: Mkv


Matroska (.MKV)

Video Detay


MPEG-4, 2100 Kbps, 1,46GB

imdb puanı


5,6 / 10,0 / 23,000

süre


99 dakika

Ses Kodek: AC3


Audio Coding 3 (AC3)

Ses Detay


384 Kbps, 6 Kanal, 273Mb

Editör Puanı


5,2

Genislik Yukseklik


1920-800

sürüm


x264 | m10800P



Ma


Film Detayları

Ma, orta yaşlarındaki bir kadın ile arkadaşlık kuran bir grup gencin başlarına gelen olayları konu ediyor. Ohio’da yaşayan Sue Ann, kendi dünyasında yaşayan, orta yaşlardaki yalnız bir kadındır. Sue,bir gün kasabaya yakın zamanda taşınmış olan Maggie adında bir kız ve onun arkadaşları ile tanışır. Aileleri ile birlikte yaşayan gençler, üzerlerindeki baskıdan fazlasıyla bunalmıştır. Tam da bu sırada evinde büyük bir parti düzenleyen Sue, gençlerin de aralarına katılmasını ister. Bu davet Maggie ve arkadaşları için kaçırılmayacak bir fırsattır. Gençler, başlarına geleceklerden bihaber, partide Sue ile birlikte gönüllerince eğlenir. Sue ile tanıştıkları için kendilerini şanslı hisseden gençler, zaman geçtikçe bir takım tuhaf şeyler yaşamaya başlar. Sue’nun gösterdiği yakınlık, bir süre sonra takıntılı bir hal almaya başlayınca, gençler kendilerini büyük bir girdabın içerisinde bulur.

Ma (2019) Filmi Imdb'den 23,000 kişi tarafından oylandı ve 5,6 puan aldı. Bu film için editör puanı 5,2 olarak belirlendi. İyi Seyirler!


Teknik Detaylar


Kod :
General
Complete name                            : Ma.2019.m1080p.BLURAY.x264.DUAL.TR.Filmbol.mkv
Format                                   : Matroska
Format version                           : Version 4 / Version 2
File size                                : 1.72 GiB
Duration                                 : 1h 39mn
Overall bit rate                         : 2 484 Kbps
Movie name                               : Ma (2019) - Filmbol.org
Encoded date                             : UTC 2019-11-04 00:40:20
Writing application                      : mkvmerge v35.0.0 ('All The Love In The World') 64-bit
Writing library                          : libebml v1.3.9 + libmatroska v1.5.2

Video
ID                                       : 1
Format                                   : AVC
Format/Info                              : Advanced Video Codec
Format profile                           : High@L4.1
Format settings, CABAC                   : Yes
Format settings, ReFrames                : 4 frames
Codec ID                                 : V_MPEG4/ISO/AVC
Duration                                 : 1h 39mn
Bit rate                                 : 2 100 Kbps
Width                                    : 1 920 pixels
Height                                   : 800 pixels
Display aspect ratio                     : 2.40:1
Frame rate mode                          : Constant
Frame rate                               : 23.976 (24000/1001) fps
Color space                              : YUV
Chroma subsampling                       : 4:2:0
Bit depth                                : 8 bits
Scan type                                : Progressive
Bits/(Pixel*Frame)                       : 0.057
Stream size                              : 1.46 GiB (84%)
Title                                    : 1080P - Filmbol.org
Writing library                          : x264 core 157
Default                                  : Yes
Forced                                   : No

Audio
ID                                       : 2
Format                                   : AC-3
Format/Info                              : Audio Coding 3
Mode extension                           : CM (complete main)
Format settings, Endianness              : Big
Codec ID                                 : A_AC3
Duration                                 : 1h 39mn
Bit rate mode                            : Constant
Bit rate                                 : 384 Kbps
Channel(s)                               : 6 channels
Channel positions                        : Front: L C R, Side: L R, LFE
Sampling rate                            : 48.0 KHz
Frame rate                               : 31.250 fps (1536 spf)
Compression mode                         : Lossy
Stream size                              : 273 MiB (15%)
Title                                    : Türkçe - Filmbol.org
Language                                 : Turkish
Default                                  : Yes
Forced                                   : Yes

Text
ID                                       : 3
Format                                   : UTF-8
Codec ID                                 : S_TEXT/UTF8
Codec ID/Info                            : UTF-8 Plain Text
Duration                                 : 1h 37mn
Bit rate                                 : 0 bps
Count of elements                        : 7
Stream size                              : 138 Bytes (0%)
Title                                    : KISIM
Language                                 : Turkish
Default                                  : Yes
Forced                                   : Yes

Film Detayları


Ma

Ma

Ma


Film Fragmanı


Film Detayları

Mini 1080P İndir


Uptobox ile indir

LetsUpload ile indir

b1s0

Mega ile indir

MediaFire ile indir

Google Drive linki şuan da gizli. Kullanıma açmak için konuya yorum yapın ve ardından sayfayı yenileyin. Ayrıca bu linki açtığınızda reklamsız olarak erişebileceğinizi unutmayın.

Google Drive

Şuan Offine!
Şuan Offine!
Aspirin46 Süper Üye
***
Super Üye

  • Konular0
  • Mesajlar54
  • Rep puanı 0
SÜPER
Şuan Offine!
Şuan Offine!
apatee13 Yeni Üye
*
Üye

  • Konular0
  • Mesajlar5
  • Rep puanı 0
teşekkürler
Şuan Offine!
Şuan Offine!
ORHun Süper Üye
***
Super Üye

  • Konular0
  • Mesajlar31
  • Rep puanı 0
+++++++++++++++++


Konu ile Alakalı Benzer Konular
Konular Yazar Yorumlar Okunma Son Yorum
Filmin Yayınlanma Tarihi: 2019
15 Dakika Savaş (L'intervention) - 2019 - TR+ORG - 1080P BroserBros 0 20 , Saat: 17:42
Son Yorum: BroserBros
Filmin Yayınlanma Tarihi: 2019
Gel Babacığına (Come to Daddy) - 2019 - TR+ORG - 1080P BroserBros 0 34 22-11-2020, Saat: 17:43
Son Yorum: BroserBros
Filmin Yayınlanma Tarihi: 2019
San Francisco'daki Son Siyah Adam (The Last Black Man in San Francisco) - 2019 - TR+ORG - 1080P BroserBros 0 36 22-11-2020, Saat: 17:30
Son Yorum: BroserBros
Filmin Yayınlanma Tarihi: 2019
Ralph ve İnternet (Ralph Breaks the Internet) Türkçe Dublaj BLURAY m1080P İndir BroserBros 15 1,097 21-11-2020, Saat: 18:10
Son Yorum: miyaavc
Filmin Yayınlanma Tarihi: 2019
Beni Unutma (Remember Me) - 2019 - TR+ORG - 1080P BroserBros 0 57 21-11-2020, Saat: 16:14
Son Yorum: BroserBros

Hızlı Menü: