Filmbol Forum Film İndir BRRip XviD v Luis ve Uzaylı Dostları (Luis & the Aliens) - 2018 - TR - BRRip XviD
Moderatör Alımları Başladı! Başvuru yapmak için tıklayın.
Filmbol Premium'da %50'e varan indirim fırsatı!
Luis ve Uzaylı Dostları (Luis & the Aliens) - 2018 - TR - BRRip XviD
BroserBros
Luis ve Uzaylı Dostları (Luis & the Aliens) - 2018 - TR - BRRip XviD
0
169
  • Derecelendirme: 0/5 - 0 oy
  • 1
  • 2
  • 3
  • 4
  • 5
Konuyu Okuyanlar:1 Ziyaretçi
Şuan Offine!
Filmin Yayınlanma Tarihi: 2018 
Şuan Offine!
BroserBros Kurucu Admin
*******
Admin

Vizyon Tarihi


02 Ağustos 2019

imdb puanı


6,0 / 2,000

süre


76 dakika

Editör Puanı


5,8 / 10

Video Format: Avi


Audio Video Interleave (.AVI)

Ses Kodek: MP3


MPEG-1 Audio Layer III (MP3)

sürüm


h263 | BRRip XviD

Boyutlar


1,22 GB



 Luis ve Uzaylı Dostları



Luis 12 yaşındadır ve yalnız bir çocukdur. Babası bir UFO bilimcisidir ve bu yüzden de Luis babasından etkilenerek uzayda kesinlikle bir yaşam olduğunu düşünür. Geceleri teleskop ile uzayı seyreder ve gündüzleri de uyur. Okul'u bu yüzden de pek verimli geçmez. Sonunda bir gün Mag, Nah ve Wabo adında üç şapşal uzaylı şans eseri Luis'in kapısına dayanır ve işler değişir....

Luis ve Uzaylı Dostları (2018) (Luis & the Aliens) Filmi Imdb'den 2,000 kişi tarafından oylandı ve 6,0 puan aldı. Bu film için editör puanı 5,8 olarak belirlendi. İyi Seyirler!

Teknik Detaylar

Kod :
General
Complete name                            : /root/Desktop/4/Luis.Ve.Uzaylı.Dostları.2018.BRRip.XViD.TR.Filmbol.avi
Format                                  : AVI
Format/Info                              : Audio Video Interleave
File size                                : 1.22 GiB
Duration                                : 1h 25mn
Overall bit rate                        : 2 052 Kbps

Video
ID                                      : 0
Format                                  : MPEG-4 Visual
Format profile                          : Advanced Simple@L5
Format settings, BVOP                    : 1
Format settings, QPel                    : No
Format settings, GMC                    : No warppoints
Format settings, Matrix                  : Default (H.263)
Codec ID                                : XVID
Codec ID/Hint                            : XviD
Duration                                : 1h 25mn
Bit rate                                : 1 910 Kbps
Width                                    : 720 pixels
Height                                  : 384 pixels
Display aspect ratio                    : 1.85:1
Frame rate                              : 24.000 fps
Color space                              : YUV
Chroma subsampling                      : 4:2:0
Bit depth                                : 8 bits
Scan type                                : Progressive
Compression mode                        : Lossy
Bits/(Pixel*Frame)                      : 0.288
Stream size                              : 1.14 GiB (93%)
Writing library                          : XviD 67

Audio
ID                                      : 1
Format                                  : MPEG Audio
Format version                          : Version 1
Format profile                          : Layer 3
Mode                                    : Joint stereo
Mode extension                          : MS Stereo
Codec ID                                : 55
Codec ID/Hint                            : MP3
Duration                                : 1h 25mn
Bit rate mode                            : Constant
Bit rate                                : 128 Kbps
Channel(s)                              : 2 channels
Sampling rate                            : 48.0 KHz
Compression mode                        : Lossy
Stream size                              : 78.0 MiB (6%)
Alignment                                : Aligned on interleaves
Interleave, duration                    : 24 ms (0.58 video frame)

Film Detayları


 Luis ve Uzaylı Dostları

 Luis ve Uzaylı Dostları

 Luis ve Uzaylı Dostları


Film Fragmanı


Film Detayları


Uptobox ile indir

1Fichier ile indir

1Fichier'den İndiremiyor musun? Tıklayın!


Mega ile indir

Bunun için üzgünüz ancak, bu linke sadece premium üyeler erişebilir.

Filmbol Cloud



Konu ile Alakalı Benzer Konular
Konular Yazar Yorumlar Okunma Son Yorum
Filmin Yayınlanma Tarihi: 2014
Yarının Sınırında (Edge of Tomorrow) - 2014 - TR - BRRip XviD BroserBros 1 142 20-10-2020, Saat: 15:13
Son Yorum: sectechno
Filmin Yayınlanma Tarihi: 2020
Holly Slept Over (Holly Slept Over) - 2020 - TR - BRRip XviD BroserBros 0 473 08-10-2020, Saat: 20:08
Son Yorum: BroserBros
Filmin Yayınlanma Tarihi: 2019
Rahat Kız (An Easy Girl) - 2019 - TR - BRRip XviD BroserBros 0 489 08-10-2020, Saat: 19:34
Son Yorum: BroserBros
Filmin Yayınlanma Tarihi: 2020
Mavi Korku 3 (Deep Blue Sea 3) - 2020 - TR - BRRip XviD BroserBros 0 575 03-10-2020, Saat: 21:11
Son Yorum: BroserBros
Filmin Yayınlanma Tarihi: 2018
Fast Color: Gücünü Serbest Bırak (Fast Color) - 2018 - TR - BRRip XviD BroserBros 0 133 03-10-2020, Saat: 16:46
Son Yorum: BroserBros

Hızlı Menü: