Filmbol Forum Film İndir 1080P v Loro (2018) Türkçe Dublaj BLURAY 1080P İndir
Mega linklerinin şikayet edilmemesi için global erişime kapatıp sadece yorum yapanlara açıyoruz. Bu linkleri gizleme işlemini mecburen yapıyoruz ve yorum yapmanızın siteye değil size faydası vardır. Teşekürler yazmayı çok görüp, Random/Spam mesajlar atarak Mega linklerini açmaya çalışan kullanıcılara önce süresiz ban, devam ederse IP ban atacağız.
Filmbol'da moderatör olmak ister misiniz? Bizimle iletişime geçmek için tıklayın!
Loro (2018) Türkçe Dublaj BLURAY 1080P İndir
BroserBros
Loro (2018) Türkçe Dublaj BLURAY 1080P İndir
0
337
  • Derecelendirme: 0/5 - 0 oy
  • 1
  • 2
  • 3
  • 4
  • 5
Konuyu Okuyanlar:1 Ziyaretçi
Şuan Online!
Filmin Yayınlanma Tarihi: 2018 
WWW
Şuan Online!
BroserBros Kurucu Admin
*******
Admin








 Loro



BAFTA ve Cannes Film Festivali tarafından ödüle layık görülen başarılı yönetmen Paolo Sorrentino'nun yönetmen koltuğuna oturduğu Loro, skandallarıyla ünlenen eski İtalyan başbakanı Silvio Berlusconi'nin yaşamına odaklanıyor. Hem özel hayatına hem de ülke için yürüttüğü politika çalışmalarına iğnelemeler yapan Loro, Berlusconi'nin skandallarını masaya yatırıyor.

Loro (2018) (2018) Filmi Imdb'den 2,000 kişi tarafından oylandı ve 6,7 puan aldı. Bu film için editör puanı 5,9 olarak belirlendi. İyi Seyirler!

Teknik Detaylar

Kod :
General Unique ID                                : 256807350414591704918286433085933401850 (0xC1334BEEA5BDFDF9E103739D9A92B6FA) Complete name                            : /root/Desktop/2/Loro.2018.1080p.BLURAY.x264.TR.Filmbol.mkv Format                                   : Matroska Format version                           : Version 4 / Version 2 File size                                : 2.33 GiB Duration                                 : 2h 31mn Overall bit rate                         : 2 209 Kbps Movie name                               : Loro (2018) - Filmbol.org Encoded date                             : UTC 2020-01-15 00:00:37 Writing application                      : mkvmerge v35.0.0 ('All The Love In The World') 64-bit Writing library                          : libebml v1.3.9 + libmatroska v1.5.2  Video ID                                       : 1 Format                                   : AVC Format/Info                              : Advanced Video Codec Format profile                           : [email protected] Format settings, CABAC                   : Yes Format settings, ReFrames                : 2 frames Codec ID                                 : V_MPEG4/ISO/AVC Duration                                 : 2h 31mn Bit rate                                 : 2 015 Kbps Width                                    : 1 920 pixels Height                                   : 800 pixels Display aspect ratio                     : 2.40:1 Frame rate mode                          : Constant Frame rate                               : 25.000 fps Color space                              : YUV Chroma subsampling                       : 4:2:0 Bit depth                                : 8 bits Scan type                                : Progressive Bits/(Pixel*Frame)                       : 0.052 Stream size                              : 2.13 GiB (91%) Title                                    : 1080P - Filmbol.org Default                                  : Yes Forced                                   : No  Audio ID                                       : 2 Format                                   : AC-3 Format/Info                              : Audio Coding 3 Mode extension                           : CM (complete main) Format settings, Endianness              : Big Codec ID                                 : A_AC3 Duration                                 : 2h 31mn Bit rate mode                            : Constant Bit rate                                 : 192 Kbps Channel(s)                               : 2 channels Channel positions                        : Front: L R Sampling rate                            : 48.0 KHz Frame rate                               : 31.250 fps (1536 spf) Compression mode                         : Lossy Stream size                              : 207 MiB (9%) Title                                    : Türkçe - Filmbol.org Language                                 : Turkish Default                                  : Yes Forced                                   : No

Film Detayları


 Loro

 Loro


Film Fragmanı


Film Detayları

Mini 1080P İndir

Uptobox ile indir

1Fichier ile indir

1Fichier'den İndiremiyor musun? Tıklayın!


Mega linki şuan da gizli. Kullanıma açmak için konuya yorum yapın ve ardından sayfayı yenileyin.

Mega


MediaFire ile indir



Konu ile Alakalı Benzer Konular
Konular Yazar Yorumlar Okunma Son Yorum
Filmin Yayınlanma Tarihi: 1972
Baba (The Godfather) - 1972 - TR+ORG - 1080P | tt0068646 BroserBros 1 232 19 dakika önce
Son Yorum: BroserBros
Filmin Yayınlanma Tarihi: 1990
Baba 3 (The Godfather: Part III) - 1990 - TR+ORG - 1080P | tt0099674 BroserBros 1 265 59 dakika önce
Son Yorum: BroserBros
Filmin Yayınlanma Tarihi: 1998
Armageddon (Armageddon) - 1998 - TR+ORG - 1080P | tt0120591 BroserBros 1 260 2 saat önce
Son Yorum: BroserBros
  Uzaydan Gelen Renk (Color Out of Space) - 2019 - TR+ORG - 1080P | tt5073642 TheSteeL 0 34 , Saat: 22:01
Son Yorum: TheSteeL
Filmin Yayınlanma Tarihi: 2020
I Care a Lot (I Care a Lot) - 2020 - TR+ORG - 1080P | tt9893250 TheSteeL 0 33 , Saat: 21:52
Son Yorum: TheSteeL

Hızlı Menü: