Hoşgeldin, Ziyaretçi: Giriş Yap Üye Ol


stats
Adblock'u kapattıysanız tıklayın.
Hoşgeldiniz!
Filmbol'u tercih ettiğiniz için teşekkürler, ancak ablock kullanarak devam edemezsiniz.
Merak etmeyin. Heryerden ardı ardına çıkan reklamlar görmeyeceksiniz :)

Sadece site içi 1 reklam göreceksin ve bu site gezintini etkilemeyecek.
Konuyu Oyla:
  • Derecelendirme: 0/5 - 0 oy
  • 1
  • 2
  • 3
  • 4
  • 5
Title: Like Father Türkçe Dublaj m1080P İndir
Gösterim Stili
#1
Filmin Yayınlanma Tarihi: 2018 

indirme türü


Bulut + Premium

vizyon tarihi


03 Ağustos 2018

Boyutlar


1,74

diller


[TR]

altyazilar


Yok [Eklenebilir]

Video Format: Mkv


Matroska (.MKV)

Video Detay


MPEG-4, 2024 Kbps, 1,47 GB

imdb puanı


6,1 / 10,0 / 10,000

süre


98 dakika

Ses Kodek: AC3


Audio Coding 3 (AC3)

Ses Detay


384 Kbps, 2 Kanal, 285 Mb

rarsifresi


filmbol.org

Editör Puanı


6,3

Genislik Yukseklik


1920x1080

sürüm


h263 | NF-m720P



Film Detayları

İşkolik bir kadın olan Rachel’ın hayatında her şey planlıdır. Fakat işler her zaman düşlediği gibi gitmez. İlişkisini evlilikle taçlandıracak olan Rachel düğün günü gelip çattığında sevgilisi tarafından terk edilir. Başına gelenler sadece bununla da sınırlı değildir. Genç kadın bayalı için Karayip gezisi planlamıştır. Terk edilmiş olması balayına çıkmasına engel değildir. Rachel balayı gezisine düşleyebileceği son kişi ile çıkmıştır; babası. Rachel’in kendisi gibi işkolik olan babası, işlerini engellediğini düşündüğü için ailesini terk etmiştir ve kızı ile uzun süredir görüşmemektedir. Onca zaman sonra kızının düğününe gidince de kendisini birden balayı tatilinde bulur. Bu tatil baba ve kızın ilişkisi için önemli bir dönüm noktası olur. 

Like Father Filmi İmdb'den 10.000 kişi tarafından oylandı ve 6,1 puan aldı. Bu film için editör puanı 5,3 olarak belirlendi. İyi Seyirler!


Teknik Detaylar
Kod:
General
Complete name                            : Like.Father.2018.m1080p.NF.x264.TR.Filmbol.mkv
Format                                   : Matroska
Format version                           : Version 4 / Version 2
File size                                : 1.74 GiB
Duration                                 : 1 h 43 min
Overall bit rate                         : 2 410 kb/s
Movie name                               : Like Father / m1080P / Filmbol.org
Encoded date                             : UTC 2018-08-20 13:50:56
Writing application                      : mkvmerge v15.0.0 ('Duel with the Devil') 64-bit
Writing library                          : libebml v1.3.5 + libmatroska v1.4.7

Video
ID                                       : 1
Format                                   : AVC
Format/Info                              : Advanced Video Codec
Format profile                           : Main@L4
Format settings                          : CABAC / 2 Ref Frames
Format settings, CABAC                   : Yes
Format settings, ReFrames                : 2 frames
Codec ID                                 : V_MPEG4/ISO/AVC
Duration                                 : 1 h 43 min
Bit rate                                 : 2 024 kb/s
Width                                    : 1 920 pixels
Height                                   : 1 080 pixels
Display aspect ratio                     : 16:9
Frame rate mode                          : Constant
Frame rate                               : 23.976 (24000/1001) FPS
Color space                              : YUV
Chroma subsampling                       : 4:2:0
Bit depth                                : 8 bits
Scan type                                : Progressive
Bits/(Pixel*Frame)                       : 0.041
Stream size                              : 1.47 GiB (84%)
Title                                    : m1080P - Filmbol.org
Default                                  : Yes
Forced                                   : No

Audio
ID                                       : 2
Format                                   : AC-3
Format/Info                              : Audio Coding 3
Codec ID                                 : A_AC3
Duration                                 : 1 h 43 min
Bit rate mode                            : Constant
Bit rate                                 : 384 kb/s
Channel(s)                               : 6 channels
Channel positions                        : Front: L C R, Side: L R, LFE
Sampling rate                            : 48.0 kHz
Frame rate                               : 31.250 FPS (1536 SPF)
Bit depth                                : 16 bits
Compression mode                         : Lossy
Stream size                              : 285 MiB (16%)
Title                                    : Türkçe - Filmbol.org
Language                                 : Turkish
Service kind                             : Complete Main
Default                                  : Yes
Forced                                   : No




Film Detayları


Like Father

Like Father

Like Father

Like Father

Like Father



Film Fragmanı


Film Detayları

Mini 1080P İndir


Turbobit İle İndir

Mega ile indir

Uptobox ile indir

Cloud Ru ile indir

 
Cevapla
  


Hızlı Menü:


Browsing: 1 Ziyaretçi