Filmbol Forum Film İndir 1080P v Lanetli Çocuk 2 (Brahms: The Boy II) - 2020 - TR+ORG - 1080P
Moderatör Alımları Başladı! Başvuru yapmak için tıklayın.
Filmbol Premium'da %50'e varan indirim fırsatı!
Lanetli Çocuk 2 (Brahms: The Boy II) - 2020 - TR+ORG - 1080P
BroserBros
Lanetli Çocuk 2 (Brahms: The Boy II) - 2020 - TR+ORG - 1080P
0
38
  • Derecelendirme: 0/5 - 0 oy
  • 1
  • 2
  • 3
  • 4
  • 5
Konuyu Okuyanlar:1 Ziyaretçi
Şuan Online!
Filmin Yayınlanma Tarihi: 2020 
Şuan Online!
BroserBros Kurucu Admin
*******
Admin

Vizyon Tarihi


20 Şubat 2020

imdb puanı


4,6 / 8,500

süre


86 dakika

Editör Puanı


5,2 / 10

Video Format: Mkv


Matroska (.MKV)

Ses Kodek: AC3


Audio Coding 3 (AC3)

sürüm


x264 | 1080P | BluRay

Boyutlar


1,72 GB



 Lanetli Çocuk 2



Lanetli Çocuk filminin devam filmi olan Lanetli Çocuk 2 bir çocugun oyuncak bebek ile olan ilginç hikayesini konu ediniyor. Küçük çocuk bu oyuncak bebeğe Brahms adını verir ve sanki gerçek gibi olan bu bebek hareket etmeye başladığında işler değişir...

Lanetli Çocuk 2 (2020) (Brahms: The Boy II) Filmi Imdb'den 8,500 kişi tarafından oylandı ve 4,6 puan aldı. Bu film için editör puanı 5,2 olarak belirlendi. İyi Seyirler!

Teknik Detaylar

Kod :
General
Unique ID                                : 99217317515679523884277610310529613706 (0x4AA48F6E8B5807D3C5B9FB3F1E4A7F8A)
Complete name                            : /root/Desktop/2/Lanetli.Çocuk.2.2020.1080p.BluRay.x264.TR.ENG.Filmbol.mkv
Format                                  : Matroska
Format version                          : Version 4 / Version 2
File size                                : 1.72 GiB
Duration                                : 1h 27mn
Overall bit rate                        : 2 820 Kbps
Movie name                              : Lanetli Çocuk 2 - Brahms The Boy II - 2020 | Filmbol.org
Encoded date                            : UTC 2020-07-23 11:41:57
Writing application                      : mkvmerge v8.8.0 ('Wind at my back') 64bit
Writing library                          : libebml v1.3.3 + libmatroska v1.4.4

Video
ID                                      : 1
Format                                  : AVC
Format/Info                              : Advanced Video Codec
Format profile                          : High@L4.1
Format settings, CABAC                  : Yes
Format settings, ReFrames                : 4 frames
Codec ID                                : V_MPEG4/ISO/AVC
Duration                                : 1h 27mn
Bit rate                                : 2 250 Kbps
Width                                    : 1 920 pixels
Height                                  : 800 pixels
Display aspect ratio                    : 2.40:1
Frame rate mode                          : Constant
Frame rate                              : 23.976 (24000/1001) fps
Color space                              : YUV
Chroma subsampling                      : 4:2:0
Bit depth                                : 8 bits
Scan type                                : Progressive
Bits/(Pixel*Frame)                      : 0.061
Stream size                              : 1.37 GiB (80%)
Title                                    : Filmbol.org
Writing library                          : x264 core 159
Encoding settings                        : cabac=1 / ref=4 / deblock=1:-1:-1 / analyse=0x3:0x133 / me=umh / subme=9 / psy=1 / psy_rd=1.00:0.15 / mixed_ref=1 / me_range=24 / chroma_me=1 / trellis=2 / 8x8dct=1 / cqm=0 / deadzone=21,11 / fast_pskip=0 / chroma_qp_offset=-3 / threads=12 / lookahead_threads=1 / sliced_threads=0 / nr=0 / decimate=1 / interlaced=0 / bluray_compat=0 / constrained_intra=0 / bframes=3 / b_pyramid=2 / b_adapt=2 / b_bias=0 / direct=3 / weightb=1 / open_gop=0 / weightp=2 / keyint=250 / keyint_min=23 / scenecut=40 / intra_refresh=0 / rc_lookahead=60 / rc=2pass / mbtree=1 / bitrate=2250 / ratetol=1.0 / qcomp=0.60 / qpmin=0 / qpmax=69 / qpstep=4 / cplxblur=20.0 / qblur=0.5 / vbv_maxrate=31250 / vbv_bufsize=31250 / nal_hrd=none / filler=0 / ip_ratio=1.40 / aq=1:1.00
Default                                  : Yes
Forced                                  : No

Audio #1
ID                                      : 2
Format                                  : AC-3
Format/Info                              : Audio Coding 3
Mode extension                          : CM (complete main)
Format settings, Endianness              : Big
Codec ID                                : A_AC3
Duration                                : 1h 27mn
Bit rate mode                            : Constant
Bit rate                                : 384 Kbps
Channel(s)                              : 6 channels
Channel positions                        : Front: L C R, Side: L R, LFE
Sampling rate                            : 48.0 KHz
Frame rate                              : 31.250 fps (1536 spf)
Compression mode                        : Lossy
Stream size                              : 239 MiB (14%)
Title                                    : Filmbol.org
Language                                : Turkish
Default                                  : Yes
Forced                                  : No

Audio #2
ID                                      : 3
Format                                  : AC-3
Format/Info                              : Audio Coding 3
Mode extension                          : CM (complete main)
Format settings, Endianness              : Big
Codec ID                                : A_AC3
Duration                                : 1h 27mn
Bit rate mode                            : Constant
Bit rate                                : 192 Kbps
Channel(s)                              : 2 channels
Channel positions                        : Front: L R
Sampling rate                            : 48.0 KHz
Frame rate                              : 31.250 fps (1536 spf)
Compression mode                        : Lossy
Stream size                              : 119 MiB (7%)
Title                                    : Filmbol.org
Language                                : English
Default                                  : No
Forced                                  : No

Text #1
ID                                      : 4
Format                                  : UTF-8
Codec ID                                : S_TEXT/UTF8
Codec ID/Info                            : UTF-8 Plain Text
Duration                                : 1h 25mn
Bit rate                                : 3 bps
Count of elements                        : 64
Stream size                              : 1.92 KiB (0%)
Title                                    : Filmbol.org
Language                                : Turkish
Default                                  : Yes
Forced                                  : No

Text #2
ID                                      : 5
Format                                  : UTF-8
Codec ID                                : S_TEXT/UTF8
Codec ID/Info                            : UTF-8 Plain Text
Duration                                : 1h 25mn
Bit rate                                : 36 bps
Count of elements                        : 879
Stream size                              : 23.0 KiB (0%)
Title                                    : Filmbol.org
Language                                : Turkish
Default                                  : No
Forced                                  : No

Film Detayları


 Lanetli Çocuk 2

 Lanetli Çocuk 2

 Lanetli Çocuk 2


Film Fragmanı


Film Detayları

Uptobox ile indir

1Fichier ile indir

1Fichier'den İndiremiyor musun? Tıklayın!


Mega ile indir

Bunun için üzgünüz ancak, bu linke sadece premium üyeler erişebilir.

Filmbol Cloud



Konu ile Alakalı Benzer Konular
Konular Yazar Yorumlar Okunma Son Yorum
Filmin Yayınlanma Tarihi: 2020
Vahşetin Çağrısı (The Call of the Wild) - 2020 - TR+ORG - 1080P BroserBros 0 26 , Saat: 20:46
Son Yorum: BroserBros
Filmin Yayınlanma Tarihi: 2019
The Gentlemen (The Gentlemen) - 2019 - TR+ORG - 1080P BroserBros 0 31 , Saat: 20:34
Son Yorum: BroserBros
Filmin Yayınlanma Tarihi: 2019
Sokak Dansı: Çin (Step Up China) - 2019 - TR+ORG - 1080P BroserBros 0 27 , Saat: 20:07
Son Yorum: BroserBros
Filmin Yayınlanma Tarihi: 2019
X-Men: Dark Phoenix (2019) Türkçe Dublaj BLURAY 1080P İndir BroserBros 37 2,405 04-08-2020, Saat: 17:09
Son Yorum: menesk10
Filmin Yayınlanma Tarihi: 2019
Saklı Gerçekler (The Truth - La vérité) - 2019 - TR+ORG - 1080P BroserBros 0 92 26-07-2020, Saat: 13:10
Son Yorum: BroserBros

Hızlı Menü: