Hoşgeldin, Ziyaretçi: Giriş Yap Üye Ol


Konuyu Oyla:
  • Derecelendirme: 0/5 - 0 oy
  • 1
  • 2
  • 3
  • 4
  • 5
Title: Kung Fu Panda 3 Türkçe Dublaj Brrip-Xvid İndir
Gösterim Stili
#1
Filmin Yayınlanma Tarihi: 2016 

indirme türü


Bulut + Premium

vizyon tarihi


18 Mart 2016

Boyutlar


1,18GB

diller


[TR]

altyazilar


Yok [Eklenebilir]

Video Format: Avi


Audio Video Interleave (.AVI)

Video Detay


MPEG-4, 1649 Kbps, 1,09 GB

imdb puanı


7,2 / 10,0 / 85,000

süre


95 dakika

Ses Kodek: MP3


MPEG-1 Audio Layer III (MP3)

Ses Detay


128 Kbps, 2 Kanal, 87 Mb

rarsifresi


filmbol.org

Editör Puanı


6,9

Genislik Yukseklik


720x304

sürüm


h263 | Brrip-Xvid


Film Detayları

Animasyon tarihinin en başarılı serilerinden biri olan KUNG FU PANDA 3, şu ana kadar ki en komik macerasıyla geri dönüyor. Po'nun uzun süredir kayıp olan panda babası ortaya çıkınca tekrar bir araya  gelirler. İkili müthiş yeni pandalarla tanışmak için gizli panda cennetine doğru yola çıkarlar. Ancak doğaüstü kötü adam Kai'nin, bütün Çin'deki kung fu ustalarını yenmeye başlaması üzerine, Po imkansız bir görevi yerine getirmeye çalışır. Bir köy dolusu cana yakın, sakar pandayı eğitmeli ve onları Panda ustası haline getirmelidir.

Yönetmenliğini ikinci filmde de olduğu gibi yine Jennifer Yuh'un üstlendiği sevilen animasyon yapımda senaryo gene Jonathan Aibel ve Glenn Berger ikilisine ait. Filmin orijinal seslendirme kadrosunda Po'ya Jack Black hayat verirken, kendisine Dustin Hoffman, David Cross, James Hong, Angelina Jolie, Lucy Liu, Seth Rogen ve Mads Mikkelsen'den oluşan efsane bir ekip eşlik ediyor.


Teknik Detaylar

Kod:
General
Format                                   : AVI
Format/Info                              : Audio Video Interleave
File size                                : 1.18 GiB
Duration                                 : 1h 34mn
Overall bit rate                         : 1 787 Kbps

Video
ID                                       : 0
Format                                   : MPEG-4 Visual
Format profile                           : Advanced Simple@L5
Format settings, BVOP                    : 2
Format settings, QPel                    : No
Format settings, GMC                     : No warppoints
Format settings, Matrix                  : Default (H.263)
Muxing mode                              : Packed bitstream
Codec ID                                 : XVID
Codec ID/Hint                            : XviD
Duration                                 : 1h 34mn
Bit rate                                 : 1 649 Kbps
Width                                    : 720 pixels
Height                                   : 304 pixels
Display aspect ratio                     : 2.35:1
Frame rate                               : 23.976 fps
Color space                              : YUV
Chroma subsampling                       : 4:2:0
Bit depth                                : 8 bits
Scan type                                : Progressive
Compression mode                         : Lossy
Bits/(Pixel*Frame)                       : 0.314
Stream size                              : 1.09 GiB (92%)
Writing library                          : XviD 66

Audio
ID                                       : 1
Format                                   : MPEG Audio
Format version                           : Version 1
Format profile                           : Layer 3
Mode                                     : Joint stereo
Mode extension                           : MS Stereo
Codec ID                                 : 55
Codec ID/Hint                            : MP3
Duration                                 : 1h 34mn
Source duration                          : 1h 34mn
Bit rate mode                            : Constant
Bit rate                                 : 128 Kbps
Channel(s)                               : 2 channels
Sampling rate                            : 48.0 KHz
Compression mode                         : Lossy
Stream size                              : 86.9 MiB (7%)
Alignment                                : Aligned on interleaves
Interleave, duration                     : 42 ms (1.00 video frame)


Film Detayları


Kung Fu Panda 3

Kung Fu Panda 3

Kung Fu Panda 3

Kung Fu Panda 3

Kung Fu Panda 3


Film Fragmanı


Film Detayları

Brrip İndir


Mega linki şuan da gizli. Kullanıma açmak için konuya yorum yapın ve ardından sayfayı yenileyin. Ayrıca bu linki açtığınızda reklamsız olarak erişebileceğinizi unutmayın.

Mega


Uptobox ile indir

 
Cevapla
#2
teşekkürler
 
Cevapla
#3
teşekkürler
 
Cevapla
  


Konu ile Alakalı Benzer Konular
Konular Yazar Yorumlar Okunma Son Yorum
Filmin Yayınlanma Tarihi: 2012 Buz Devri 4: Kıtalar Ayrılıyor (Ice Age: Continental Drift) Türkçe Dublaj BRRip XviD BroserBros 0 56 24-02-2020, Saat: 21:53
Son Yorum: BroserBros
Filmin Yayınlanma Tarihi: 2019 Addams Ailesi (The Addams Family) Türkçe Dublaj BRRip XviD indir BroserBros 0 66 22-02-2020, Saat: 22:58
Son Yorum: BroserBros
Filmin Yayınlanma Tarihi: 2009 Buz Devri 3 (Ice Age: Dawn of the Dinosaurs) Türkçe Dublaj BRRip XviD İndir BroserBros 0 50 21-02-2020, Saat: 22:43
Son Yorum: BroserBros
Filmin Yayınlanma Tarihi: 2006 Buz Devri 2 (Erime Başlıyor (Ice Age: The Meltdown)) Türkçe Dublaj BRRip XviD indir BroserBros 0 31 21-02-2020, Saat: 22:31
Son Yorum: BroserBros
Filmin Yayınlanma Tarihi: 2002 Buz Devri (Ice Age) Türkçe Dublaj BRRip XviD indir BroserBros 0 101 17-02-2020, Saat: 17:33
Son Yorum: BroserBros

Hızlı Menü:


Browsing: 1 Ziyaretçi