Filmbol Forum Film İndir BRRip XviD v Küçük Yabancı (The Little Stranger) Türkçe Dublaj BRRip XviD İndir
Mega linklerinin şikayet edilmemesi için global erişime kapatıp sadece yorum yapanlara açıyoruz. Bu linkleri gizleme işlemini mecburen yapıyoruz ve yorum yapmanızın siteye değil size faydası vardır. Teşekürler yazmayı çok görüp, Random/Spam mesajlar atarak Mega linklerini açmaya çalışan kullanıcılara önce süresiz ban, devam ederse IP ban atacağız.
Filmbol'da moderatör olmak ister misiniz? Bizimle iletişime geçmek için tıklayın!
Küçük Yabancı (The Little Stranger) Türkçe Dublaj BRRip XviD İndir
BroserBros
Küçük Yabancı (The Little Stranger) Türkçe Dublaj BRRip XviD İndir
0
288
  • Derecelendirme: 0/5 - 0 oy
  • 1
  • 2
  • 3
  • 4
  • 5
Konuyu Okuyanlar:1 Ziyaretçi
Şuan Online!
Filmin Yayınlanma Tarihi: 2018 
WWW
Şuan Online!
BroserBros Kurucu Admin
*******
Admin




Video Format: Avi


Audio Video Interleave (.AVI)

Ses Kodek: MP3


MPEG-1 Audio Layer III (MP3)





Küçük Yabancı



Film Detayları

“The Little Stranger” köy doktoru olarak epey bir saygınlık kazanan Doktor Faraday’e odaklanıyor. Bir hizmetçinin oğlu olan Faraday, 1947 yılının sıcak bir yaz günü bir zamanlar annesinin çalıştığı Hundreds Hall’daki bir hastayı ziyaret eder. Hall, iki yüzyıldan daha uzun bir süredir Ayres ailesinin evidir. Ancak ev artık eskisi kadar ihtişamlı değildir ve uğursuz bir şey ev sakinlerine musallat olmuştur. Hastayla ilgilenmeye başlayan Faraday, kendi hikayesinin ailenin hikayesiyle ne kadar korkunç bir şekilde birbirine geçtiğinin farkında değildir.

Küçük Yabancı (The Little Stranger) Filmi Imdb'den 7,000 kişi tarafından oylandı ve 5,5 puan aldı. Bu film için editör puanı 5,8 olarak belirlendi. İyi Seyirler!


Teknik Detaylar


Kod :
General
Complete name                            : /root/Desktop/11/Küçük.Yabancı.2018.BRRip.XViD.TR.Filmbol.avi
Format                                   : AVI
Format/Info                              : Audio Video Interleave
File size                                : 684 MiB
Duration                                 : 1h 51mn
Overall bit rate                         : 856 Kbps

Video
ID                                       : 0
Format                                   : MPEG-4 Visual
Format profile                           : Advanced [email protected]
Format settings, BVOP                    : 2
Format settings, QPel                    : No
Format settings, GMC                     : No warppoints
Format settings, Matrix                  : Default (MPEG)
Codec ID                                 : XVID
Codec ID/Hint                            : XviD
Duration                                 : 1h 51mn
Bit rate                                 : 715 Kbps
Width                                    : 720 pixels
Height                                   : 388 pixels
Display aspect ratio                     : 1.85:1
Frame rate                               : 23.976 (23976/1000) fps
Color space                              : YUV
Chroma subsampling                       : 4:2:0
Bit depth                                : 8 bits
Scan type                                : Progressive
Compression mode                         : Lossy
Bits/(Pixel*Frame)                       : 0.107
Stream size                              : 571 MiB (84%)
Writing library                          : XviD 64

Audio
ID                                       : 1
Format                                   : MPEG Audio
Format version                           : Version 1
Format profile                           : Layer 3
Mode                                     : Joint stereo
Mode extension                           : MS Stereo
Codec ID                                 : 55
Codec ID/Hint                            : MP3
Duration                                 : 1h 51mn
Bit rate mode                            : Constant
Bit rate                                 : 128 Kbps
Channel(s)                               : 2 channels
Sampling rate                            : 48.0 KHz
Compression mode                         : Lossy
Stream size                              : 102 MiB (15%)
Alignment                                : Aligned on interleaves
Interleave, duration                     : 24 ms (0.58 video frame)

Film Detayları


Küçük Yabancı

Küçük Yabancı

Küçük Yabancı


Film Fragmanı


Film Detayları

Brrip İndir



Uptobox ile indir

1Fichier ile indir

1Fichier'den İndiremiyor musun? Tıklayın!


Mega linki şuan da gizli. Kullanıma açmak için konuya yorum yapın ve ardından sayfayı yenileyin.

Mega


MediaFire ile indir



Konu ile Alakalı Benzer Konular
Konular Yazar Yorumlar Okunma Son Yorum
Filmin Yayınlanma Tarihi: 2017
The Babysitter (The Babysitte) - 2017 - TR - BRRip XviD | tt4225622 TheSteeL 0 18 3 saat önce
Son Yorum: TheSteeL
Filmin Yayınlanma Tarihi: 2020
Bebek Bakıcısı: Katil Kraliçe (The Babysitter: Killer Queen) - 2020 - TR - BRRip XviD | tt11024272 TheSteeL 0 16 3 saat önce
Son Yorum: TheSteeL
Filmin Yayınlanma Tarihi: 2019
Charlie'nin Melekleri (Charlie's Angels) Türkçe Dublaj BRRip XviD indir BroserBros 2 261 5 saat önce
Son Yorum: sectechno
Filmin Yayınlanma Tarihi: 2019
Captain Marvel Türkçe Dublaj Brrip-Xvid İndir BroserBros 5 633 8 saat önce
Son Yorum: Strange
Filmin Yayınlanma Tarihi: 2000
Gladyatör (Gladiator) - 2000 - TR - BRRip XviD | tt0172495 BroserBros 2 220 8 saat önce
Son Yorum: Furkan61

Hızlı Menü: