Filmbol Forum Film İndir BRRip XviD v Küçük (Little) - 2019 - TR - BRRip XviD
Moderatör Alımları Başladı! Başvuru yapmak için tıklayın.
Filmbol Premium'da %50'e varan indirim fırsatı!
Küçük (Little) - 2019 - TR - BRRip XviD
BroserBros
Küçük (Little) - 2019 - TR - BRRip XviD
0
114
  • Derecelendirme: 0/5 - 0 oy
  • 1
  • 2
  • 3
  • 4
  • 5
Konuyu Okuyanlar:1 Ziyaretçi
Şuan Offine!
Filmin Yayınlanma Tarihi: 2019 
Şuan Offine!
BroserBros Kurucu Admin
*******
Admin

Vizyon Tarihi


12 Nisan 2019

imdb puanı


5,4 / 10,000

süre


109 dakika

Editör Puanı


5,5 / 10

Video Format: Avi


Audio Video Interleave (.AVI)

Ses Kodek: MP3


MPEG-1 Audio Layer III (MP3)

sürüm


h263 | BRRip XviD

Boyutlar


1,26 GB



 Küçük



Little, yeniden gençliğini yaşama şansı elde eden bir kadının hikayesini konu ediyor. Jordan 30’lu yaşlarında olan genç bir kadındır. Hayatının zorlu döneminden geçen genç kadın gerek özel hayatı gerekse iş dünyasında çeşitli zorluklarla boğuşur. Jordan’ın asistanı April ise bu süreçten etkilenenlerin başından gelir. Jordan ile çalışmak April için fazlasıyla yorucudur. Yetişkin olmanın yükünü fazlasıyla omuzlarında taşıyan Jordan, tam da artık bu yükü taşımakta zorlandığı dönemde hayatını değiştirecek bir mucize ile karşı karşıya kalır.

Küçük (2019) (Little) Filmi Imdb'den 10,000 kişi tarafından oylandı ve 5,4 puan aldı. Bu film için editör puanı 5,5 olarak belirlendi. İyi Seyirler!

Teknik Detaylar

Kod :
General
Complete name                            : /root/Desktop/2/Küçük.2019.BRRip.XViD.TR.Filmbol.avi
Format                                  : AVI
Format/Info                              : Audio Video Interleave
File size                                : 1.26 GiB
Duration                                : 1h 48mn
Overall bit rate                        : 1 659 Kbps

Video
ID                                      : 0
Format                                  : MPEG-4 Visual
Format profile                          : Advanced Simple@L5
Format settings, BVOP                    : 1
Format settings, QPel                    : No
Format settings, GMC                    : No warppoints
Format settings, Matrix                  : Custom
Codec ID                                : XVID
Codec ID/Hint                            : XviD
Duration                                : 1h 48mn
Bit rate                                : 1 518 Kbps
Width                                    : 704 pixels
Height                                  : 384 pixels
Display aspect ratio                    : 1.85:1
Frame rate                              : 23.976 (23976/1000) fps
Color space                              : YUV
Chroma subsampling                      : 4:2:0
Bit depth                                : 8 bits
Scan type                                : Progressive
Compression mode                        : Lossy
Bits/(Pixel*Frame)                      : 0.234
Stream size                              : 1.15 GiB (92%)
Writing library                          : XviD 73

Audio
ID                                      : 1
Format                                  : MPEG Audio
Format version                          : Version 1
Format profile                          : Layer 3
Mode                                    : Joint stereo
Codec ID                                : 55
Codec ID/Hint                            : MP3
Duration                                : 1h 48mn
Bit rate mode                            : Constant
Bit rate                                : 128 Kbps
Channel(s)                              : 2 channels
Sampling rate                            : 48.0 KHz
Compression mode                        : Lossy
Stream size                              : 99.6 MiB (8%)
Alignment                                : Aligned on interleaves
Interleave, duration                    : 24 ms (0.58 video frame)

Film Detayları


 Küçük

 Küçük

 Küçük


Film Fragmanı


Film Detayları


Uptobox ile indir

1Fichier ile indir

1Fichier'den İndiremiyor musun? Tıklayın!


Mega ile indir

Bunun için üzgünüz ancak, bu linke sadece premium üyeler erişebilir.

Filmbol Cloud



Konu ile Alakalı Benzer Konular
Konular Yazar Yorumlar Okunma Son Yorum
Filmin Yayınlanma Tarihi: 2020
Holly Slept Over (Holly Slept Over) - 2020 - TR - BRRip XviD BroserBros 0 223 08-10-2020, Saat: 20:08
Son Yorum: BroserBros
Filmin Yayınlanma Tarihi: 2019
Rahat Kız (An Easy Girl) - 2019 - TR - BRRip XviD BroserBros 0 231 08-10-2020, Saat: 19:34
Son Yorum: BroserBros
Filmin Yayınlanma Tarihi: 2020
Mavi Korku 3 (Deep Blue Sea 3) - 2020 - TR - BRRip XviD BroserBros 0 323 03-10-2020, Saat: 21:11
Son Yorum: BroserBros
Filmin Yayınlanma Tarihi: 2018
Fast Color: Gücünü Serbest Bırak (Fast Color) - 2018 - TR - BRRip XviD BroserBros 0 127 03-10-2020, Saat: 16:46
Son Yorum: BroserBros
Filmin Yayınlanma Tarihi: 2018
Ölümcül Makineler (Mortal Engines) Türkçe Dublaj Brrip Xvid İndir BroserBros 2 436 03-10-2020, Saat: 01:49
Son Yorum: sectechno

Hızlı Menü: