Hoşgeldin, Ziyaretçi: Giriş Yap Üye Ol


Konuyu Oyla:
  • Derecelendirme: 0/5 - 0 oy
  • 1
  • 2
  • 3
  • 4
  • 5
Title: Küçük Kız Kardeşim (Our Little Sister) Türkçe Dublaj Brrip-Xvid İndir
Gösterim Stili
#1
Filmin Yayınlanma Tarihi: 2015 

indirme türü


Bulut + Premium

vizyon tarihi


13 Haziran 2015

Boyutlar


1,29GB

diller


[TR]

altyazilar


Yok [Eklenebilir]

Video Format: Avi


Audio Video Interleave (.AVI)

Video Detay


MPEG-4, 1338 Kbps, 1,19 GB

imdb puanı


7,6 / 10,0 / 6,000

süre


128 dakika

Ses Kodek: MP3


MPEG-1 Audio Layer III (MP3)

Ses Detay


128 Kbps, 2 Kanal, 116 Mb

rarsifresi


filmbol.org

Editör Puanı


6,3

Genislik Yukseklik


720x390

sürüm


h263 | Brrip-Xvid


Film Detayları

Çağdaş Japon sinemasının ustası Kore-eda’nın beklenen filmi Our Little Sister, Yoshida Akimi’nin aynı adlı çok satan çizgi romanından uyarlandı. Büyükannelerine ait bir evde oturan üç yetişkin kız kardeş, yıllardır görmedikleri babalarının cenazesinde onlu yaşlarındaki utangaç üvey kız kardeşleri Suzu ile tanışırlar. Kızı çok sevip yanlarına alan kız kardeşler, ailelerine yeni katılan bu kızla gitgide yakınlaşmaya başlarlar. Klasik Japon tarzını benimseyen bu sakin ve dokunaklı aile dramı, Cannes’da Altın Palmiye için yarışmıştı. Filmin başrollerinde Haruka Ayase, Masami Nagasawa, Kaho, Takafumi Ikeda yer alıyor.

Teknik Detaylar

Kod:
General
Format                                   : AVI
Format/Info                              : Audio Video Interleave
File size                                : 1.31 GiB
Duration                                 : 2h 6mn
Overall bit rate                         : 1 476 Kbps

Video
ID                                       : 0
Format                                   : MPEG-4 Visual
Format profile                           : Simple@L1
Format settings, BVOP                    : No
Format settings, QPel                    : No
Format settings, GMC                     : No warppoints
Format settings, Matrix                  : Default (H.263)
Codec ID                                 : FMP4
Duration                                 : 2h 6mn
Bit rate                                 : 1 338 Kbps
Width                                    : 720 pixels
Height                                   : 390 pixels
Display aspect ratio                     : 1.85:1
Frame rate                               : 23.976 fps
Color space                              : YUV
Chroma subsampling                       : 4:2:0
Bit depth                                : 8 bits
Scan type                                : Progressive
Compression mode                         : Lossy
Bits/(Pixel*Frame)                       : 0.199
Stream size                              : 1.19 GiB (91%)
Writing library                          : Lavc56.41.100

Audio
ID                                       : 1
Format                                   : MPEG Audio
Format version                           : Version 1
Format profile                           : Layer 3
Mode                                     : Joint stereo
Mode extension                           : MS Stereo
Codec ID                                 : 55
Codec ID/Hint                            : MP3
Duration                                 : 2h 6mn
Source duration                          : 2h 6mn
Bit rate mode                            : Constant
Bit rate                                 : 128 Kbps
Channel(s)                               : 2 channels
Sampling rate                            : 48.0 KHz
Compression mode                         : Lossy
Stream size                              : 116 MiB (9%)
Alignment                                : Aligned on interleaves
Interleave, duration                     : 42 ms (1.00 video frame)
Writing library                          : LAME3.98.4


Film Detayları


Our Little Sister

Our Little Sister

Our Little Sister

Our Little Sister

Our Little Sister


Film Fragmanı


Film Detayları

Brrip İndir


Mega linki şuan da gizli. Kullanıma açmak için konuya yorum yapın ve ardından sayfayı yenileyin. Ayrıca bu linki açtığınızda reklamsız olarak erişebileceğinizi unutmayın.

Mega


Uptobox ile indir

 
Cevapla
  


Konu ile Alakalı Benzer Konular
Konular Yazar Yorumlar Okunma Son Yorum
Filmin Yayınlanma Tarihi: 2019 Joker (2019) Türkçe Dublaj BRRip XviD İndir BroserBros 2 44 25-01-2020, Saat: 11:54
Son Yorum: cemsav97
Filmin Yayınlanma Tarihi: 2019 Saka Kuşu (The Goldfinch) Türkçe Dublaj BRRip XviD İndir BroserBros 0 112 23-01-2020, Saat: 18:48
Son Yorum: BroserBros
Filmin Yayınlanma Tarihi: 2018 Van Gogh: Sonsuzluğun Kapısında (At Eternity's Gate) Türkçe Dublaj Brrip Xvid İndir BroserBros 7 175 19-01-2020, Saat: 14:41
Son Yorum: annenocococ
Filmin Yayınlanma Tarihi: 2016 Katwe Kraliçesi (Quenn Of Katwe) Türkçe Dublaj Brrip-Xvid İndir BroserBros 1 907 16-01-2020, Saat: 21:48
Son Yorum: fevgo
Filmin Yayınlanma Tarihi: 2019 İkikez Yaşa Birkez Sev (Live Twice Love Once) Türkçe Dublaj BRRip XviD İndir BroserBros 0 218 14-01-2020, Saat: 01:18
Son Yorum: BroserBros

Hızlı Menü:


Browsing: 1 Ziyaretçi