Hoşgeldin, Ziyaretçi: Giriş Yap Üye Ol


Konuyu Oyla:
  • Derecelendirme: 0/5 - 0 oy
  • 1
  • 2
  • 3
  • 4
  • 5
Title: Küçük Kahramanlar (Gnome Alone) Türkçe Dublaj Brrip-Xvid İndir
Gösterim Stili
#1
Filmin Yayınlanma Tarihi: 2017 

indirme türü


Bulut + Premium

vizyon tarihi


09 Mart 2018

Boyutlar


1,00

diller


[TR]

altyazilar


Yok [Eklenebilir]

Video Format: Avi


Audio Video Interleave (.AVI)

Video Detay


MPEG-4, 1558 Kbps, 0,95 GB

imdb puanı


5,6 / 10,0 / 500

süre


85 dakika

Ses Kodek: MP3


MPEG-1 Audio Layer III (MP3)

Ses Detay


128 Kbps, 2 Kanal, 0,78 Mb

rarsifresi


Filmbol.org

Editör Puanı


4,5

Genislik Yukseklik


720x390

sürüm


x263 | Brrip-Xvid


Film Detayları

Chloe, yeni evinin bahçesindeki cücelerin göründüğü gibi olmadığını fark ettikten sonra kendisi için iki seçim yolu oluşur. Buna göre Chloe liseye devam etmeli yada Troggus ile savaşmalı.

Küçük Kahramanlar (Gnome Alone) Filmi İmdb'den 500 kişi tarafından oylandı ve 5,6 puan aldı. Bu film için editör puanı 4,5 olarak belirlendi. İyi Seyirler!


Teknik Detaylar
Kod:
General
Complete name                            : Gnome.Alone.2017.BRRip.XviD.TR.avi
Format                                   : AVI
Format/Info                              : Audio Video Interleave
File size                                : 1.01 GiB
Duration                                 : 1 h 25 min
Overall bit rate                         : 1 700 kb/s

Video
ID                                       : 0
Format                                   : MPEG-4 Visual
Format profile                           : Simple@L5
Format settings, BVOP                    : No
Format settings, QPel                    : No
Format settings, GMC                     : No warppoints
Format settings, Matrix                  : Default (H.263)
Codec ID                                 : XVID
Codec ID/Hint                            : XviD
Duration                                 : 1 h 25 min
Bit rate                                 : 1 558 kb/s
Width                                    : 720 pixels
Height                                   : 390 pixels
Display aspect ratio                     : 1.85:1
Frame rate                               : 23.976 (24000/1001) FPS
Color space                              : YUV
Chroma subsampling                       : 4:2:0
Bit depth                                : 8 bits
Scan type                                : Progressive
Compression mode                         : Lossy
Bits/(Pixel*Frame)                       : 0.231
Stream size                              : 950 MiB (92%)
Writing library                          : Lavc57.107.100

Audio
ID                                       : 1
Format                                   : MPEG Audio
Format version                           : Version 1
Format profile                           : Layer 3
Format settings                          : Joint stereo / MS Stereo
Codec ID                                 : 55
Codec ID/Hint                            : MP3
Duration                                 : 1 h 25 min
Bit rate mode                            : Constant
Bit rate                                 : 128 kb/s
Channel(s)                               : 2 channels
Sampling rate                            : 48.0 kHz
Frame rate                               : 41.667 FPS (1152 SPF)
Compression mode                         : Lossy
Stream size                              : 78.1 MiB (8%)
Alignment                                : Aligned on interleaves
Interleave, duration                     : 24  ms (0.58 video frame)
Writing library                          : LAME3.99.5




Film Detayları


Gnome alone

Gnome alone

Gnome alone

Gnome alone

Gnome alone


Film Fragmanı


Film Detayları

Brrip İndir


Mega linki şuan da gizli. Kullanıma açmak için konuya yorum yapın ve ardından sayfayı yenileyin. Ayrıca bu linki açtığınızda reklamsız olarak erişebileceğinizi unutmayın.

Mega


Uptobox ile indir

CloudRu ile indir

 
Cevapla
  


Konu ile Alakalı Benzer Konular
Konular Yazar Yorumlar Okunma Son Yorum
Filmin Yayınlanma Tarihi: 2012 Buz Devri 4: Kıtalar Ayrılıyor (Ice Age: Continental Drift) Türkçe Dublaj BRRip XviD BroserBros 0 56 24-02-2020, Saat: 21:53
Son Yorum: BroserBros
Filmin Yayınlanma Tarihi: 2019 Addams Ailesi (The Addams Family) Türkçe Dublaj BRRip XviD indir BroserBros 0 66 22-02-2020, Saat: 22:58
Son Yorum: BroserBros
Filmin Yayınlanma Tarihi: 2009 Buz Devri 3 (Ice Age: Dawn of the Dinosaurs) Türkçe Dublaj BRRip XviD İndir BroserBros 0 50 21-02-2020, Saat: 22:43
Son Yorum: BroserBros
Filmin Yayınlanma Tarihi: 2006 Buz Devri 2 (Erime Başlıyor (Ice Age: The Meltdown)) Türkçe Dublaj BRRip XviD indir BroserBros 0 31 21-02-2020, Saat: 22:31
Son Yorum: BroserBros
Filmin Yayınlanma Tarihi: 2016 Kung Fu Panda 3 Türkçe Dublaj Brrip-Xvid İndir BroserBros 2 3,065 19-02-2020, Saat: 01:42
Son Yorum: haytoki

Hızlı Menü:


Browsing: 1 Ziyaretçi