Filmbol Forum Film İndir 1080P v Küçük Cadı (Die kleine Hexe) Türkçe Dublaj BLURAY 1080P İndir
Filmbol'da moderatör olmak ister misiniz? Bizimle iletişime geçmek için tıklayın!
Küçük Cadı (Die kleine Hexe) Türkçe Dublaj BLURAY 1080P İndir
BroserBros
Küçük Cadı (Die kleine Hexe) Türkçe Dublaj BLURAY 1080P İndir
3
337
  • Derecelendirme: 0/5 - 0 oy
  • 1
  • 2
  • 3
  • 4
  • 5
Konuyu Okuyanlar:1 Ziyaretçi
Şuan Online!
Filmin Yayınlanma Tarihi: 2018 
Şuan Online!
BroserBros Kurucu Admin
*******
Admin

indirme türü


Bulut + Premium

Vizyon Tarihi


25 Mayıs 2018

Boyutlar


1,71

diller


[TR]

altyazilar


Yok [Eklenebilir]

Video Format: Mkv


Matroska (.MKV)

Video Detay


MPEG-4, 1995Kbps, 1,44GB

imdb puanı


6,1 / 10,0 / 1,000

süre


103 dakika

Ses Kodek: AC3


Audio Coding 3 (AC3)

Ses Detay


384 Kbps, 6 Kanal, 283Mb

Editör Puanı


5,2

Genislik Yukseklik


1920-816

sürüm


x264 | 1080P




Die kleine Hexe



Film Detayları

Die kleine Hexe, küçük bir cadıdır. Onun yeteneklerini iyi kullanabilen müthiş bir cadı olması için fedakarlık yapması gerekir. Küçük cadının en büyük isteği büyük festivalde dans edebilmektir. Ancak gelecek sene gerçekleşecek olan festivale girebilmesi için sınava girmesi ve kitapta yer alan bütün büyüler üzerinde ustalaşması gerekir. Küçük cadı hiç vakit kaybetmeden çalışmalara başlar. Ama kötü kalpli cadı Rumpumpel küçük cadının hedefine ulaşmasını engellemek için her türlü yolu dener. Küçük cadı kitaptaki tüm büyüleri ezberleyip hayalini kurduğu festivale katılmaya başarabilecek midir?


Teknik Detaylar


Kod :
General
Complete name                            : Küçük.Cadı.2018.1080p.WEB-DL.x264.TR.Filmbol.mkv
Format                                   : Matroska
Format version                           : Version 4 / Version 2
File size                                : 1.71 GiB
Duration                                 : 1h 43mn
Overall bit rate                         : 2 380 Kbps
Movie name                               : Küçük Cad (2018) - Filmbol.org
Encoded date                             : UTC 2019-12-20 04:31:35
Writing application                      : mkvmerge v35.0.0 ('All The Love In The World') 64-bit
Writing library                          : libebml v1.3.9 + libmatroska v1.5.2

Video
ID                                       : 1
Format                                   : AVC
Format/Info                              : Advanced Video Codec
Format profile                           : Main@L4
Format settings, CABAC                   : Yes
Format settings, ReFrames                : 2 frames
Codec ID                                 : V_MPEG4/ISO/AVC
Duration                                 : 1h 43mn
Bit rate                                 : 1 995 Kbps
Width                                    : 1 920 pixels
Height                                   : 816 pixels
Display aspect ratio                     : 2.35:1
Frame rate mode                          : Constant
Frame rate                               : 24.000 fps
Color space                              : YUV
Chroma subsampling                       : 4:2:0
Bit depth                                : 8 bits
Scan type                                : Progressive
Bits/(Pixel*Frame)                       : 0.053
Stream size                              : 1.44 GiB (84%)
Title                                    : 1080P - Filmbol.org
Default                                  : Yes
Forced                                   : No

Audio
ID                                       : 2
Format                                   : AC-3
Format/Info                              : Audio Coding 3
Mode extension                           : CM (complete main)
Format settings, Endianness              : Big
Codec ID                                 : A_AC3
Duration                                 : 1h 42mn
Bit rate mode                            : Constant
Bit rate                                 : 384 Kbps
Channel(s)                               : 6 channels
Channel positions                        : Front: L C R, Side: L R, LFE
Sampling rate                            : 48.0 KHz
Frame rate                               : 31.250 fps (1536 spf)
Compression mode                         : Lossy
Stream size                              : 283 MiB (16%)
Title                                    : Türkçe - Filmbol.org
Language                                 : Turkish
Default                                  : Yes
Forced                                   : No

Film Detayları


Küçük Cadı

Küçük Cadı

Küçük Cadı

Film Fragmanı


Film Detayları

Mini 1080P İndir



Uptobox ile indir

1Fichier ile indir

1Fichier'den İndiremiyor musun? Tıklayın!


Mega ile indir

MediaFire ile indir

Şuan Offine!
Şuan Offine!
ahmetyee1 Süper Üye
***
Super Üye

  • Konular3
  • Mesajlar54
  • Rep puanı 0
iyi güzel
Şuan Offine!
Şuan Offine!
studionrg Uzman Üye
**
Uzman Üye

  • Konular0
  • Mesajlar9
  • Rep puanı 0
Teşekkürler.
Şuan Offine!
Şuan Offine!
musti79 Uzman Üye
**
Uzman Üye

  • Konular0
  • Mesajlar16
  • Rep puanı 0
Teşekkürler


Konu ile Alakalı Benzer Konular
Konular Yazar Yorumlar Okunma Son Yorum
Filmin Yayınlanma Tarihi: 2019
Luce (Luce) - 2019 - TR+ORG - 1080P BroserBros 0 13 7 saat önce
Son Yorum: BroserBros
Filmin Yayınlanma Tarihi: 2020
Aşka İnan (I Still Believe) - 2020 - TR+ORG - 1080P BroserBros 0 12 8 saat önce
Son Yorum: BroserBros
Filmin Yayınlanma Tarihi: 2018
Döndüm Ben (Yerli) - 2018 - TR+ORG - 1080P BroserBros 0 38 27-11-2020, Saat: 18:41
Son Yorum: BroserBros
Filmin Yayınlanma Tarihi: 2018
Bana Bir Soygun Yaz 2 (Yerli) - 2018 - TR+ORG - 1080P BroserBros 0 36 27-11-2020, Saat: 18:26
Son Yorum: BroserBros
Filmin Yayınlanma Tarihi: 2019
Hain (The Traitor / Il traditore) - 2019 - TR+ORG - 1080P BroserBros 0 65 26-11-2020, Saat: 16:05
Son Yorum: BroserBros

Hızlı Menü: