Filmbol Forum Film İndir 720P v Küçük Beyaz Yalanlar 2 (Nous finirons ensemble) Türkçe Dublaj BLURAY 720P İndir
Mega linklerinin şikayet edilmemesi için global erişime kapatıp sadece yorum yapanlara açıyoruz. Bu linkleri gizleme işlemini mecburen yapıyoruz ve yorum yapmanızın siteye değil size faydası vardır. Teşekürler yazmayı çok görüp, Random/Spam mesajlar atarak Mega linklerini açmaya çalışan kullanıcılara önce süresiz ban, devam ederse IP ban atacağız.
Filmbol'da moderatör olmak ister misiniz? Bizimle iletişime geçmek için tıklayın!
Küçük Beyaz Yalanlar 2 (Nous finirons ensemble) Türkçe Dublaj BLURAY 720P İndir
BroserBros
Küçük Beyaz Yalanlar 2 (Nous finirons ensemble) Türkçe Dublaj BLURAY 720P İndir
0
206
  • Derecelendirme: 0/5 - 0 oy
  • 1
  • 2
  • 3
  • 4
  • 5
Konuyu Okuyanlar:1 Ziyaretçi
Şuan Online!
Filmin Yayınlanma Tarihi: 2019 
WWW
Şuan Online!
BroserBros Kurucu Admin
*******
Admin








 Küçük Beyaz Yalanlar 2



Küçük Beyaz Yalanlar Devam Ediyor, yıllar sonra yeniden bir araya gelen insanların hikayesini konu ediyor. Max, hayatına deniz kenarında bir yerde devam etmek için sevdiklerini adında bırakarak yeni hayatına adım atar. Bu durum geçmişte birçok anıyı paylaştığı arkadaşları ile arasına mesafe girmesine neden olur. Max, aradan geçen birkaç yıl sonra doğum gününde büyük bir sürprizle karşılaşır. Yıllardır görüşmediği arkadaşları Max’ın doğum günü için toplanıp evine ziyerete gelmiştir. Üstelik gelenlerin sayısı da bir hayli fazladır. Yeniden bir araya gelmenin heyecanı içinde olan ekip, eski günleri yad ettiğinde kendilerini beklenmedik durumları içerisinde bulur.

Küçük Beyaz Yalanlar 2 (2019) (Nous finirons ensemble) Filmi Imdb'den 2,000 kişi tarafından oylandı ve 6,5 puan aldı. Bu film için editör puanı 5,8 olarak belirlendi. İyi Seyirler!

Teknik Detaylar

Kod :
General
Unique ID                                : 18367203570693928005062730558736717022 (0xDD1650D5CCCC2B135A1FDFDCC0454DE)
Complete name                            : /root/Desktop/4/Küçük.Beyaz.Yalanlar.Devam.Ediyor.2019.720p.BluRay.x264.TR.Filmbol.mkv
Format                                   : Matroska
Format version                           : Version 4 / Version 2
File size                                : 1.30 GiB
Duration                                 : 2h 14mn
Overall bit rate                         : 1 389 Kbps
Movie name                               : Küçük Beyaz Yalanlar Devam Ediyor (2019) - Filmbol.org
Encoded date                             : UTC 2020-01-27 07:39:11
Writing application                      : mkvmerge v35.0.0 ('All The Love In The World') 64-bit
Writing library                          : libebml v1.3.9 + libmatroska v1.5.2

Video
ID                                       : 1
Format                                   : AVC
Format/Info                              : Advanced Video Codec
Format profile                           : [email protected]
Format settings, CABAC                   : Yes
Format settings, ReFrames                : 2 frames
Format settings, GOP                     : M=1, N=25
Codec ID                                 : V_MPEG4/ISO/AVC
Duration                                 : 2h 14mn
Bit rate                                 : 1 195 Kbps
Width                                    : 1 280 pixels
Height                                   : 536 pixels
Display aspect ratio                     : 2.40:1
Frame rate mode                          : Constant
Frame rate                               : 23.976 (24000/1001) fps
Color space                              : YUV
Chroma subsampling                       : 4:2:0
Bit depth                                : 8 bits
Scan type                                : Progressive
Bits/(Pixel*Frame)                       : 0.073
Stream size                              : 1.12 GiB (86%)
Title                                    : 720P - Filmbol.org
Language                                 : French
Default                                  : Yes
Forced                                   : No

Audio
ID                                       : 2
Format                                   : AC-3
Format/Info                              : Audio Coding 3
Mode extension                           : CM (complete main)
Format settings, Endianness              : Big
Codec ID                                 : A_AC3
Duration                                 : 2h 14mn
Bit rate mode                            : Constant
Bit rate                                 : 192 Kbps
Channel(s)                               : 2 channels
Channel positions                        : Front: L R
Sampling rate                            : 48.0 KHz
Frame rate                               : 31.250 fps (1536 spf)
Compression mode                         : Lossy
Stream size                              : 185 MiB (14%)
Title                                    : Türkçe - Filmbol.org
Language                                 : Turkish
Default                                  : Yes
Forced                                   : No

Film Detayları


 Küçük Beyaz Yalanlar 2

 Küçük Beyaz Yalanlar 2

 Küçük Beyaz Yalanlar 2

[/fragman]

Film Detayları

Mini 720P İndir

Uptobox ile indir

1Fichier ile indir

1Fichier'den İndiremiyor musun? Tıklayın!


Mega linki şuan da gizli. Kullanıma açmak için konuya yorum yapın ve ardından sayfayı yenileyin.

Mega


MediaFire ile indir



Konu ile Alakalı Benzer Konular
Konular Yazar Yorumlar Okunma Son Yorum
Filmin Yayınlanma Tarihi: 2020
Her Zaman Şeytan (The Devil All the Time) - 2020 - TR+ORG - 720P | tt7395114 TheSteeL 0 20 9 saat önce
Son Yorum: TheSteeL
Filmin Yayınlanma Tarihi: 2020
Baba Aranıyor (Se busca papá) - 2020 - TR+ORG - 720P | tt12721188 TheSteeL 0 19 9 saat önce
Son Yorum: TheSteeL
Filmin Yayınlanma Tarihi: 2019
Beyaz Kentin Sessizliği (El silencio de la ciudad blanca) - 2019 - TR+ORG - 720P | tt8393332 BroserBros 1 250 , Saat: 15:38
Son Yorum: BroserBros
Filmin Yayınlanma Tarihi: 2019
Frankenstein: Ölümsüzlerin Savaşı (I, Frankenstein) - 2014 - TR+ORG - 720P | tt1418377 BroserBros 2 262 , Saat: 15:29
Son Yorum: BroserBros
Filmin Yayınlanma Tarihi: 2002
Akıl Oyunları (A Beautiful Mind) - 2001 - TR+ORG - 720P | tt0268978 BroserBros 1 245 , Saat: 15:12
Son Yorum: BroserBros

Hızlı Menü: