Filmbol Forum Film İndir 720P v Küçük Ayak (Smallfoot) - 2018 - TR+ORG - 720P
Moderatör Alımları Başladı! Başvuru yapmak için tıklayın.
Filmbol Premium'da %50'e varan indirim fırsatı!
Küçük Ayak (Smallfoot) - 2018 - TR+ORG - 720P
BroserBros
Küçük Ayak (Smallfoot) - 2018 - TR+ORG - 720P
0
109
  • Derecelendirme: 0/5 - 0 oy
  • 1
  • 2
  • 3
  • 4
  • 5
Konuyu Okuyanlar:1 Ziyaretçi
Şuan Offine!
Filmin Yayınlanma Tarihi: 2018 
Şuan Offine!
BroserBros Kurucu Admin
*******
Admin

Vizyon Tarihi


28 Eylül 2018

imdb puanı


6,6 / 31,000

süre


96 dakika

Editör Puanı


6,8 / 10

Video Format: Mkv


Matroska (.MKV)

Ses Kodek: AC3


Audio Coding 3 (AC3)

sürüm


x264 | 720P | BluRay

Boyutlar


1,09 GB



 Küçük Ayak



Yetilerin bir efsane olduğuna ve varlığına inanılır. Ancak Küçük Ayak filminde farklı bir bakış açısı ile, Yetilerin'de insanlar için aynısını düşündüğü varsayılır. Migo adındaki yeti ise buna tamamen inanır, küçük ayak lakaplı insanlar ona göre tamamen gerçektir ancak Migo bunun bir kanıtını bulamaz. Sonunda bir insanla karşılaşır ve bu durum küçük ayakların gerçek olduğunu kanıtlamanın bir yoludur.

Küçük Ayak (2018) (Smallfoot) Filmi Imdb'den 31,000 kişi tarafından oylandı ve 6,6 puan aldı. Bu film için editör puanı 6,8 olarak belirlendi. İyi Seyirler!

Teknik Detaylar

Kod :
General
Unique ID                                : 30000242574289222692098621945036917999 (0x1691D628395BFAA5810B5B7DEB0BCCEF)
Complete name                            : /root/Desktop/6/Küçük.Ayaklar.2018.720p.BluRay.x264.TR.ENG.Filmbol.mkv
Format                                  : Matroska
Format version                          : Version 4 / Version 2
File size                                : 1.09 GiB
Duration                                : 1h 36mn
Overall bit rate                        : 1 628 Kbps
Movie name                              : Smallfoot - Küçük Ayaklar - 2018 | Filmbol.org
Encoded date                            : UTC 2020-05-13 13:36:41
Writing application                      : mkvmerge v8.8.0 ('Wind at my back') 64bit
Writing library                          : libebml v1.3.3 + libmatroska v1.4.4

Video
ID                                      : 1
Format                                  : AVC
Format/Info                              : Advanced Video Codec
Format profile                          : High@L4.1
Format settings, CABAC                  : Yes
Format settings, ReFrames                : 4 frames
Codec ID                                : V_MPEG4/ISO/AVC
Duration                                : 1h 36mn
Bit rate                                : 1 050 Kbps
Width                                    : 1 280 pixels
Height                                  : 534 pixels
Display aspect ratio                    : 2.40:1
Original display aspect ratio            : 2.40:1
Frame rate mode                          : Constant
Frame rate                              : 23.976 (24000/1001) fps
Color space                              : YUV
Chroma subsampling                      : 4:2:0
Bit depth                                : 8 bits
Scan type                                : Progressive
Bits/(Pixel*Frame)                      : 0.064
Stream size                              : 723 MiB (64%)
Title                                    : 720P - Filmbol.org
Writing library                          : x264 core 157
Encoding settings                        : cabac=1 / ref=4 / deblock=1:-1:-1 / analyse=0x3:0x133 / me=umh / subme=9 / psy=1 / psy_rd=1.00:0.15 / mixed_ref=1 / me_range=24 / chroma_me=1 / trellis=2 / 8x8dct=1 / cqm=0 / deadzone=21,11 / fast_pskip=0 / chroma_qp_offset=-3 / threads=17 / lookahead_threads=1 / sliced_threads=0 / nr=0 / decimate=1 / interlaced=0 / bluray_compat=0 / constrained_intra=0 / bframes=3 / b_pyramid=2 / b_adapt=2 / b_bias=0 / direct=3 / weightb=1 / open_gop=0 / weightp=2 / keyint=250 / keyint_min=23 / scenecut=40 / intra_refresh=0 / rc_lookahead=60 / rc=2pass / mbtree=1 / bitrate=1050 / ratetol=1.0 / qcomp=0.60 / qpmin=0 / qpmax=69 / qpstep=4 / cplxblur=20.0 / qblur=0.5 / vbv_maxrate=31250 / vbv_bufsize=31250 / nal_hrd=none / filler=0 / ip_ratio=1.40 / aq=1:1.00
Default                                  : Yes
Forced                                  : No

Audio #1
ID                                      : 2
Format                                  : AC-3
Format/Info                              : Audio Coding 3
Mode extension                          : CM (complete main)
Format settings, Endianness              : Big
Codec ID                                : A_AC3
Duration                                : 1h 36mn
Bit rate mode                            : Constant
Bit rate                                : 384 Kbps
Channel(s)                              : 6 channels
Channel positions                        : Front: L C R, Side: L R, LFE
Sampling rate                            : 48.0 KHz
Frame rate                              : 31.250 fps (1536 spf)
Compression mode                        : Lossy
Stream size                              : 264 MiB (24%)
Title                                    : Türkçe - Filmbol.org
Language                                : Turkish
Default                                  : Yes
Forced                                  : No

Audio #2
ID                                      : 3
Format                                  : AC-3
Format/Info                              : Audio Coding 3
Mode extension                          : CM (complete main)
Format settings, Endianness              : Big
Codec ID                                : A_AC3
Duration                                : 1h 36mn
Bit rate mode                            : Constant
Bit rate                                : 192 Kbps
Channel(s)                              : 2 channels
Channel positions                        : Front: L R
Sampling rate                            : 48.0 KHz
Frame rate                              : 31.250 fps (1536 spf)
Compression mode                        : Lossy
Stream size                              : 132 MiB (12%)
Title                                    : İngilizce - Filmbol.org
Language                                : English
Default                                  : No
Forced                                  : No

Text #1
ID                                      : 4
Format                                  : UTF-8
Codec ID                                : S_TEXT/UTF8
Codec ID/Info                            : UTF-8 Plain Text
Duration                                : 55mn 58s
Bit rate                                : 0 bps
Count of elements                        : 12
Stream size                              : 192 Bytes (0%)
Title                                    : Zorunlu Altyazı - Filmbol.org
Language                                : Turkish
Default                                  : Yes
Forced                                  : Yes

Text #2
ID                                      : 5
Format                                  : UTF-8
Codec ID                                : S_TEXT/UTF8
Codec ID/Info                            : UTF-8 Plain Text
Duration                                : 1h 35mn
Bit rate                                : 65 bps
Count of elements                        : 1497
Stream size                              : 46.1 KiB (0%)
Title                                    : Türkçe Altyazı - Filmbol.org
Language                                : Turkish
Default                                  : No
Forced                                  : No

Film Detayları


 Küçük Ayak

 Küçük Ayak

 Küçük Ayak


Film Fragmanı


Film Detayları

Uptobox ile indir

1Fichier ile indir

1Fichier'den İndiremiyor musun? Tıklayın!


Mega ile indir

Bunun için üzgünüz ancak, bu linke sadece premium üyeler erişebilir.

Filmbol Cloud



Konu ile Alakalı Benzer Konular
Konular Yazar Yorumlar Okunma Son Yorum
Filmin Yayınlanma Tarihi: 2019
Rahat Kız (An Easy Girl) - 2019 - TR+ORG - 720P BroserBros 0 226 08-10-2020, Saat: 19:35
Son Yorum: BroserBros
Filmin Yayınlanma Tarihi: 2020
Mavi Korku 3 (Deep Blue Sea 3) - 2020 - TR+ORG - 720P BroserBros 0 330 03-10-2020, Saat: 21:12
Son Yorum: BroserBros
Filmin Yayınlanma Tarihi: 2018
Fast Color: Gücünü Serbest Bırak (Fast Color) - 2018 - TR+ORG - 720P BroserBros 0 325 03-10-2020, Saat: 16:46
Son Yorum: BroserBros
Filmin Yayınlanma Tarihi: 2019
Benim Şapşik Köpeğim (Mon chien Stupide) - 2019 - TR+ORG - 720P BroserBros 0 155 02-10-2020, Saat: 21:35
Son Yorum: BroserBros
Filmin Yayınlanma Tarihi: 2020
The Hunt (Av) - 2020 - TR+ORG - 720P BroserBros 0 391 18-09-2020, Saat: 19:28
Son Yorum: BroserBros

Hızlı Menü: