Hoşgeldin, Ziyaretçi: Giriş Yap Üye Ol


stats
Adblock'u kapattıysanız tıklayın.
Hoşgeldiniz!
Filmbol'u tercih ettiğiniz için teşekkürler, ancak ablock kullanarak devam edemezsiniz.
Merak etmeyin. Heryerden ardı ardına çıkan reklamlar görmeyeceksiniz :)

Sadece site içi 1 reklam göreceksin ve bu site gezintini etkilemeyecek.
Konuyu Oyla:
  • Derecelendirme: 0/5 - 0 oy
  • 1
  • 2
  • 3
  • 4
  • 5
Title: Kral İçin Hologram (A Hologram For The King) Türkçe Dublaj m1080P İndir
Gösterim Stili
#1
Filmin Yayınlanma Tarihi: 2016 

indirme türü


Bulut + Premium

vizyon tarihi


25 Nisan 2016

Boyutlar


1,48GB

diller


[TR]

altyazilar


Yok [Eklenebilir]

Video Format: Mkv


Matroska (.MKV)

Video Detay


MPEG-4, 1988 Kbps, 1,30 GB

imdb puanı


6,1 / 10,0 / 25,000

süre


98 dakika

Ses Kodek: AC3


Audio Coding 3 (AC3)

Ses Detay


224 Kbps, 2 Kanal, 150 Mb

rarsifresi


filmbol.org

Editör Puanı


6,0

Genislik Yukseklik


1920x804

sürüm


x264 | WEB-DL m1080P



Film Detayları

Alan Clay, 54 yaşında Amerikalı bir işadamıdır. İşleri hiç de yolunda gitmemektedir ve iflasın eşiğine gelmiştir. Bu durumdan kurtulabilmek için Anthony, gençlerden oluşan bir takımla birlikte Suudi Arabistan'a gider. Anthony orada IT endüstrisi üzerine girişim fikirlerini paylaşmaya çalışır. Ama onun geleneksel düşünceleri artık yeterince karlı değildir. Kral Abdullah'a sunulmak üzere, geliştirdikleri yepyeni Amerikan IT teknolojisini tanıtmak üzere ekip bir araya gelmiştir. Bu teknoloji sayesinde şehri ekonominin merkezine dönüştürebileceklerdir. Kral Abdullah'ı gergin bir şekilde beklerken bir yandan da Suudi Arabistan'ın iklim koşullarına uyum sağlamaya çalışan ekibi bir sürpriz beklemektedir: Çinliler daha ucuza mal edilebilecek bir çözüm önermişlerdir. Ekibin bunu öğrenmesiyle rekabet başlamış olur.


Teknik Detaylar
Kod:
General
Format                                   : Matroska
Format version                           : Version 4 / Version 2
File size                                : 1.48 GiB
Duration                                 : 1h 33mn
Overall bit rate                         : 2 257 Kbps
Movie name                               : A Hologram for the King - Filmbol.org

Video
ID                                       : 1
Format                                   : AVC
Format/Info                              : Advanced Video Codec
Format profile                           : Main@L4.0
Format settings, CABAC                   : Yes
Format settings, ReFrames                : 2 frames
Codec ID                                 : V_MPEG4/ISO/AVC
Duration                                 : 1h 33mn
Bit rate                                 : 1 988 Kbps
Width                                    : 1 920 pixels
Height                                   : 804 pixels
Display aspect ratio                     : 2.40:1
Frame rate mode                          : Constant
Frame rate                               : 25.000 fps
Color space                              : YUV
Chroma subsampling                       : 4:2:0
Bit depth                                : 8 bits
Scan type                                : Progressive
Bits/(Pixel*Frame)                       : 0.052
Stream size                              : 1.30 GiB (88%)
Title                                    : m1080P - Filmbol.org
Language                                 : English
Default                                  : Yes
Forced                                   : No

Audio
ID                                       : 2
Format                                   : AC-3
Format/Info                              : Audio Coding 3
Mode extension                           : CM (complete main)
Format settings, Endianness              : Big
Codec ID                                 : A_AC3
Duration                                 : 1h 33mn
Bit rate mode                            : Constant
Bit rate                                 : 224 Kbps
Channel(s)                               : 2 channels
Channel positions                        : Front: L R
Sampling rate                            : 48.0 KHz
Bit depth                                : 16 bits
Compression mode                         : Lossy
Stream size                              : 150 MiB (10%)
Title                                    : Türkçe - Filmbol.org
Language                                 : Turkish
Default                                  : Yes
Forced                                   : No



Film Detayları


A Hologram For The King

A Hologram For The King

A Hologram For The King

A Hologram For The King

A Hologram For The King


Film Fragmanı


Film Detayları

Mini 1080P İndir


Turbobit İle İndir

Mega ile indir

Uptobox ile indir

Cloud Ru ile indir

 
Cevapla
  


Hızlı Menü:


Browsing: 1 Ziyaretçi