Filmbol Forum Film İndir BRRip XviD v Kral Arthur: Kılıç Efsanesi (King Arthur: Legend of the Sword) - 2017 - TR - BRRip XviD
Moderatör Alımları Başladı! Başvuru yapmak için tıklayın.
Filmbol Premium'da %50'e varan indirim fırsatı!
Kral Arthur: Kılıç Efsanesi (King Arthur: Legend of the Sword) - 2017 - TR - BRRip XviD
BroserBros
Kral Arthur: Kılıç Efsanesi (King Arthur: Legend of the Sword) - 2017 - TR - BRRip XviD
0
114
  • Derecelendirme: 0/5 - 0 oy
  • 1
  • 2
  • 3
  • 4
  • 5
Konuyu Okuyanlar:1 Ziyaretçi
Şuan Online!
Filmin Yayınlanma Tarihi: 2017 
Şuan Online!
BroserBros Kurucu Admin
*******
Admin

Vizyon Tarihi


12 Mayıs 2017

imdb puanı


6,7 / 190,000

süre


126 dakika

Editör Puanı


7,0 / 10

Video Format: Avi


Audio Video Interleave (.AVI)

Ses Kodek: MP3


MPEG-1 Audio Layer III (MP3)

sürüm


h263 | BRRip XviD

Boyutlar


1,18 GB



 Kral Arthur: Kılıç Efsanesi



Arthur'un babası kral olduğu için Arthur'da doğuştan bir kral sayılır ancak babasının erkenden gelen ölüm haberi ile amcası haksız yere tahta geçer ve taht'ı arthur'a verme gibi bir niyeti de yoktur. Bu durum karşısında Arthur ise sessiz kalmayacak ve elinden alınmış bu tahtı geri almak için mücadele edecektir...

Kral Arthur: Kılıç Efsanesi (2017) (King Arthur: Legend of the Sword) Filmi Imdb'den 190,000 kişi tarafından oylandı ve 6,7 puan aldı. Bu film için editör puanı 7,0 olarak belirlendi. İyi Seyirler!

Teknik Detaylar

Kod :
General
Complete name                            : /root/Desktop/7/Kral.Arthur.Kılıç.Efsanesi.2017.BRRip.XviD.TR.Filmbol.avi
Format                                  : AVI
Format/Info                              : Audio Video Interleave
File size                                : 1.18 GiB
Duration                                : 2h 6mn
Overall bit rate                        : 1 336 Kbps
Writing application                      : VirtualDubMod 1.5.10.2 (build 2542/release)
Writing library                          : VirtualDubMod build 2542/release

Video
ID                                      : 0
Format                                  : MPEG-4 Visual
Format profile                          : Advanced Simple@L5
Format settings, BVOP                    : 2
Format settings, QPel                    : No
Format settings, GMC                    : No warppoints
Format settings, Matrix                  : Default (H.263)
Muxing mode                              : Packed bitstream
Codec ID                                : XVID
Codec ID/Hint                            : XviD
Duration                                : 2h 6mn
Bit rate                                : 1 199 Kbps
Width                                    : 720 pixels
Height                                  : 304 pixels
Display aspect ratio                    : 2.35:1
Frame rate                              : 23.976 (23976/1000) fps
Color space                              : YUV
Chroma subsampling                      : 4:2:0
Bit depth                                : 8 bits
Scan type                                : Progressive
Compression mode                        : Lossy
Bits/(Pixel*Frame)                      : 0.228
Stream size                              : 1.06 GiB (90%)
Writing library                          : XviD 66

Audio
ID                                      : 1
Format                                  : MPEG Audio
Format version                          : Version 1
Format profile                          : Layer 3
Mode                                    : Joint stereo
Mode extension                          : MS Stereo
Codec ID                                : 55
Codec ID/Hint                            : MP3
Duration                                : 2h 6mn
Bit rate mode                            : Constant
Bit rate                                : 128 Kbps
Channel(s)                              : 2 channels
Sampling rate                            : 48.0 KHz
Compression mode                        : Lossy
Stream size                              : 116 MiB (10%)
Alignment                                : Split accross interleaves
Interleave, duration                    : 42 ms (1.00 video frame)
Interleave, preload duration            : 500 ms

Film Detayları


 Kral Arthur: Kılıç Efsanesi

 Kral Arthur: Kılıç Efsanesi

 Kral Arthur: Kılıç Efsanesi


Film Fragmanı


Film Detayları


Uptobox ile indir

1Fichier ile indir

1Fichier'den İndiremiyor musun? Tıklayın!


Mega ile indir

Bunun için üzgünüz ancak, bu linke sadece premium üyeler erişebilir.

Filmbol Cloud



Konu ile Alakalı Benzer Konular
Konular Yazar Yorumlar Okunma Son Yorum
Filmin Yayınlanma Tarihi: 2018
Gözbebeğim (Pupille) - 2018 - TR - BRRip XviD BroserBros 0 2 39 dakika önce
Son Yorum: BroserBros
Filmin Yayınlanma Tarihi: 2019
Umut Vadisi (Hope Gap) - 2019 - TR - BRRip XviD BroserBros 0 3 51 dakika önce
Son Yorum: BroserBros
Filmin Yayınlanma Tarihi: 2019
Cep Herkülü: Naim Süleymanoğlu (Cep Herkülü: Naim Süleymanoğlu) - 2019 - TR - BRRip XviD BroserBros 0 84 15-09-2020, Saat: 21:51
Son Yorum: BroserBros
Filmin Yayınlanma Tarihi: 2020
Berlin, Berlin (Berlin, Berlin) - 2020 - TR - BRRip XviD BroserBros 0 80 15-09-2020, Saat: 18:15
Son Yorum: BroserBros
Filmin Yayınlanma Tarihi: 2020
Malibu Rescue: Yeni Dalga (Malibu Rescue: The Next Wave) - 2020 - TR - BRRip XviD BroserBros 0 133 13-09-2020, Saat: 20:54
Son Yorum: BroserBros

Hızlı Menü: