Filmbol Forum Film İndir 1080P v Kızıl Serçe (Red Sparrow) Türkçe Dublaj BLURAY 1080P İndir
Mega linklerinin şikayet edilmemesi için global erişime kapatıp sadece yorum yapanlara açıyoruz. Bu linkleri gizleme işlemini mecburen yapıyoruz ve yorum yapmanızın siteye değil size faydası vardır. Teşekürler yazmayı çok görüp, Random/Spam mesajlar atarak Mega linklerini açmaya çalışan kullanıcılara önce süresiz ban, devam ederse IP ban atacağız.
Filmbol'da moderatör olmak ister misiniz? Bizimle iletişime geçmek için tıklayın!
Kızıl Serçe (Red Sparrow) Türkçe Dublaj BLURAY 1080P İndir
BroserBros
Kızıl Serçe (Red Sparrow) Türkçe Dublaj BLURAY 1080P İndir
2
473
  • Derecelendirme: 0/5 - 0 oy
  • 1
  • 2
  • 3
  • 4
  • 5
Konuyu Okuyanlar:1 Ziyaretçi
Şuan Online!
Filmin Yayınlanma Tarihi: 2018 
WWW
Şuan Online!
BroserBros Kurucu Admin
*******
Admin








 Kızıl Serçe



Hayatta annesinden ve baleden başka tutkusu olmayan Dominika, geçirdiği bir kaza sonucu baleye veda etmek zorunda kalmıştır. Gelecek planları bir anda tuzla buz olan genç kadın, onun gibi üstün yetenekli gençlere bedenlerini ve zihinlerini bir silah olarak kullanmayı öğreten gizli istihbarat örgütü Sparrow School'a katılır. Zorlu ve sadistik bir eğitimden geçen genç kadın, programın şimdiye kadarki en tehlikeli öğrencisi olur. Dominika şimdi sahip olduğu güçle geçmişiyle yüzleşmeli ve sevdiği herkesin hayatı tehlikedeyken, Dominika'nın güvenebileceği tek kişi olduğunu söyleyen Amerikalı CIA ajanı Nathaniel Nash'le uzlaşma sağlamalıdır...

Kızıl Serçe (2018) (Red Sparrow) Filmi Imdb'den 150,000 kişi tarafından oylandı ve 6,6 puan aldı. Bu film için editör puanı 7,0 olarak belirlendi. İyi Seyirler!

Teknik Detaylar

Kod :
General
Unique ID                                : 14050011542516541045759529575469733301 (0xA91EF0D2E43F110797000AC46FAD5B5)
Complete name                            : /root/Desktop/9/Kızıl.Serçe.2018.1080p.BluRay.x264.TR.Filmbol.mkv
Format                                   : Matroska
Format version                           : Version 4 / Version 2
File size                                : 2.48 GiB
Duration                                 : 2h 20mn
Overall bit rate                         : 2 535 Kbps
Movie name                               : Kızıl Serçe (2018) - Filmbol.org
Encoded date                             : UTC 2020-01-27 09:27:25
Writing application                      : mkvmerge v35.0.0 ('All The Love In The World') 64-bit
Writing library                          : libebml v1.3.9 + libmatroska v1.5.2

Video
ID                                       : 1
Format                                   : AVC
Format/Info                              : Advanced Video Codec
Format profile                           : [email protected]
Format settings, CABAC                   : Yes
Format settings, ReFrames                : 4 frames
Codec ID                                 : V_MPEG4/ISO/AVC
Duration                                 : 2h 20mn
Bit rate                                 : 2 150 Kbps
Width                                    : 1 920 pixels
Height                                   : 800 pixels
Display aspect ratio                     : 2.40:1
Frame rate mode                          : Constant
Frame rate                               : 23.976 (24000/1001) fps
Color space                              : YUV
Chroma subsampling                       : 4:2:0
Bit depth                                : 8 bits
Scan type                                : Progressive
Bits/(Pixel*Frame)                       : 0.058
Stream size                              : 2.10 GiB (85%)
Title                                    : 1080P - Filmbol.org
Writing library                          : x264 core 155
Encoding settings                        : cabac=1 / ref=4 / deblock=1:-1:-1 / analyse=0x3:0x133 / me=umh / subme=9 / psy=1 / psy_rd=1.00:0.15 / mixed_ref=1 / me_range=24 / chroma_me=1 / trellis=2 / 8x8dct=1 / cqm=0 / deadzone=21,11 / fast_pskip=0 / chroma_qp_offset=-3 / threads=18 / lookahead_threads=1 / sliced_threads=0 / nr=0 / decimate=1 / interlaced=0 / bluray_compat=0 / constrained_intra=0 / bframes=3 / b_pyramid=2 / b_adapt=2 / b_bias=0 / direct=3 / weightb=1 / open_gop=0 / weightp=2 / keyint=250 / keyint_min=23 / scenecut=40 / intra_refresh=0 / rc_lookahead=60 / rc=2pass / mbtree=1 / bitrate=2150 / ratetol=1.0 / qcomp=0.60 / qpmin=0 / qpmax=69 / qpstep=4 / cplxblur=20.0 / qblur=0.5 / vbv_maxrate=31250 / vbv_bufsize=31250 / nal_hrd=none / filler=0 / ip_ratio=1.40 / aq=1:1.00
Default                                  : Yes
Forced                                   : No

Audio
ID                                       : 2
Format                                   : AC-3
Format/Info                              : Audio Coding 3
Mode extension                           : CM (complete main)
Format settings, Endianness              : Big
Codec ID                                 : A_AC3
Duration                                 : 2h 20mn
Bit rate mode                            : Constant
Bit rate                                 : 384 Kbps
Channel(s)                               : 6 channels
Channel positions                        : Front: L C R, Side: L R, LFE
Sampling rate                            : 48.0 KHz
Frame rate                               : 31.250 fps (1536 spf)
Compression mode                         : Lossy
Stream size                              : 385 MiB (15%)
Title                                    : Türkçe - Filmbol.org
Default                                  : Yes
Forced                                   : No

Film Detayları


 Kızıl Serçe

 Kızıl Serçe

 Kızıl Serçe


Film Fragmanı


Film Detayları

Mini 1080P İndir

Uptobox ile indir

1Fichier ile indir

1Fichier'den İndiremiyor musun? Tıklayın!


Mega linki şuan da gizli. Kullanıma açmak için konuya yorum yapın ve ardından sayfayı yenileyin.

Mega


MediaFire ile indir

Şuan Offine!
Şuan Offine!
afkur Uzman Üye
**
Uzman Üye

  • Konular0
  • Mesajlar7
  • Rep puanı 0
teşekkür
Şuan Offine!
Şuan Offine!
zula Uzman Üye
**
Uzman Üye

  • Konular0
  • Mesajlar7
  • Rep puanı 0
teşekkürler


Konu ile Alakalı Benzer Konular
Konular Yazar Yorumlar Okunma Son Yorum
Filmin Yayınlanma Tarihi: 1972
Baba (The Godfather) - 1972 - TR+ORG - 1080P | tt0068646 BroserBros 1 232 17 dakika önce
Son Yorum: BroserBros
Filmin Yayınlanma Tarihi: 1990
Baba 3 (The Godfather: Part III) - 1990 - TR+ORG - 1080P | tt0099674 BroserBros 1 265 57 dakika önce
Son Yorum: BroserBros
Filmin Yayınlanma Tarihi: 1998
Armageddon (Armageddon) - 1998 - TR+ORG - 1080P | tt0120591 BroserBros 1 260 2 saat önce
Son Yorum: BroserBros
  Uzaydan Gelen Renk (Color Out of Space) - 2019 - TR+ORG - 1080P | tt5073642 TheSteeL 0 34 , Saat: 22:01
Son Yorum: TheSteeL
Filmin Yayınlanma Tarihi: 2020
I Care a Lot (I Care a Lot) - 2020 - TR+ORG - 1080P | tt9893250 TheSteeL 0 33 , Saat: 21:52
Son Yorum: TheSteeL

Hızlı Menü: