Filmbol Forum Film İndir 720P v Kin (Kin) - 2018 - TR+ORG - 720P
Filmbol'da moderatör olmak ister misiniz? Bizimle iletişime geçmek için tıklayın!
Kin (Kin) - 2018 - TR+ORG - 720P
BroserBros
Kin (Kin) - 2018 - TR+ORG - 720P
0
78
  • Derecelendirme: 0/5 - 0 oy
  • 1
  • 2
  • 3
  • 4
  • 5
Konuyu Okuyanlar:1 Ziyaretçi
Şuan Online!
Filmin Yayınlanma Tarihi: 2018 
Şuan Online!
BroserBros Kurucu Admin
*******
Admin

Vizyon Tarihi


31 Ağustos 2018

imdb puanı


5,8 / 14,000

süre


102 dakika

Editör Puanı


5,5 / 10

Video Format: Mkv


Matroska (.MKV)

Ses Kodek: AC3


Audio Coding 3 (AC3)

sürüm


x264 | 720P | BluRa

Boyutlar


1,03 GB



 Kin



Maksimum düzeyde suç işlenen bir kentte artık polis kontrolü kalmamış ve şehri bu karanlık kişiler devralmıştır. Başrolümüz Eli ve onun ağabeyi ise bu kentte yaşamaktadır. Elinin ağabeyi bu karanlık kişilere borç takmıştır. Artık Elinin ve ailesinin hayatı riske girdiğinde onları kurtaracak tek şey mucizevi bir şeylerdir. Bu mucizevi şey ise Elinin özel güçleri olan bir silah bulduğunda gerçekleşecektir.

Kin (2018) (Kin) Filmi Imdb'den 14,000 kişi tarafından oylandı ve 5,8 puan aldı. Bu film için editör puanı 5,5 olarak belirlendi. İyi Seyirler!

Teknik Detaylar

Kod :
General
Unique ID                                : 186688456628477822706925232347261989177 (0x8C72E38E3E7BA00730CF5CA785C87139)
Complete name                            : /root/Desktop/2/Kin.2018.720p.BluRay.x264.TR.ENG.Filmbol.mkv
Format                                  : Matroska
Format version                          : Version 4 / Version 2
File size                                : 1.03 GiB
Duration                                : 1h 42mn
Overall bit rate                        : 1 436 Kbps
Movie name                              : Kin - 2018 | Filmbol.org
Encoded date                            : UTC 2020-11-09 11:16:33
Writing application                      : mkvmerge v8.8.0 ('Wind at my back') 64bit
Writing library                          : libebml v1.3.3 + libmatroska v1.4.4

Video
ID                                      : 1
Format                                  : AVC
Format/Info                              : Advanced Video Codec
Format profile                          : High@L4.1
Format settings, CABAC                  : Yes
Format settings, ReFrames                : 4 frames
Codec ID                                : V_MPEG4/ISO/AVC
Duration                                : 1h 42mn
Bit rate                                : 1 050 Kbps
Width                                    : 1 280 pixels
Height                                  : 534 pixels
Display aspect ratio                    : 2.40:1
Original display aspect ratio            : 2.40:1
Frame rate mode                          : Constant
Frame rate                              : 23.976 (24000/1001) fps
Color space                              : YUV
Chroma subsampling                      : 4:2:0
Bit depth                                : 8 bits
Scan type                                : Progressive
Bits/(Pixel*Frame)                      : 0.064
Stream size                              : 773 MiB (73%)
Title                                    : Kin - 2018 | Filmbol.org
Writing library                          : x264 core 157
Encoding settings                        : cabac=1 / ref=4 / deblock=1:-1:-1 / analyse=0x3:0x133 / me=umh / subme=9 / psy=1 / psy_rd=1.00:0.15 / mixed_ref=1 / me_range=24 / chroma_me=1 / trellis=2 / 8x8dct=1 / cqm=0 / deadzone=21,11 / fast_pskip=0 / chroma_qp_offset=-3 / threads=17 / lookahead_threads=1 / sliced_threads=0 / nr=0 / decimate=1 / interlaced=0 / bluray_compat=0 / constrained_intra=0 / bframes=3 / b_pyramid=2 / b_adapt=2 / b_bias=0 / direct=3 / weightb=1 / open_gop=0 / weightp=2 / keyint=250 / keyint_min=23 / scenecut=40 / intra_refresh=0 / rc_lookahead=60 / rc=2pass / mbtree=1 / bitrate=1050 / ratetol=1.0 / qcomp=0.60 / qpmin=0 / qpmax=69 / qpstep=4 / cplxblur=20.0 / qblur=0.5 / vbv_maxrate=31250 / vbv_bufsize=31250 / nal_hrd=none / filler=0 / ip_ratio=1.40 / aq=1:1.00
Default                                  : Yes
Forced                                  : No

Audio #1
ID                                      : 2
Format                                  : AC-3
Format/Info                              : Audio Coding 3
Mode extension                          : CM (complete main)
Format settings, Endianness              : Big
Codec ID                                : A_AC3
Duration                                : 1h 42mn
Bit rate mode                            : Constant
Bit rate                                : 192 Kbps
Channel(s)                              : 2 channels
Channel positions                        : Front: L R
Sampling rate                            : 48.0 KHz
Frame rate                              : 31.250 fps (1536 spf)
Compression mode                        : Lossy
Stream size                              : 141 MiB (13%)
Title                                    : Kin - 2018 | Filmbol.org
Language                                : Turkish
Default                                  : Yes
Forced                                  : No

Audio #2
ID                                      : 3
Format                                  : AC-3
Format/Info                              : Audio Coding 3
Mode extension                          : CM (complete main)
Format settings, Endianness              : Big
Codec ID                                : A_AC3
Duration                                : 1h 42mn
Bit rate mode                            : Constant
Bit rate                                : 192 Kbps
Channel(s)                              : 2 channels
Channel positions                        : Front: L R
Sampling rate                            : 48.0 KHz
Frame rate                              : 31.250 fps (1536 spf)
Compression mode                        : Lossy
Stream size                              : 141 MiB (13%)
Title                                    : Kin - 2018 | Filmbol.org
Language                                : English
Default                                  : No
Forced                                  : No

Text
ID                                      : 4
Format                                  : UTF-8
Codec ID                                : S_TEXT/UTF8
Codec ID/Info                            : UTF-8 Plain Text
Duration                                : 1h 34mn
Bit rate                                : 39 bps
Count of elements                        : 985
Stream size                              : 27.1 KiB (0%)
Title                                    : Kin - 2018 | Filmbol.org
Language                                : Turkish
Default                                  : No
Forced                                  : No

Film Detayları


 Kin

 Kin

 Kin


Film Fragmanı


Film Detayları

Uptobox ile indir

1Fichier ile indir

1Fichier'den İndiremiyor musun? Tıklayın!


Mega ile indir

Bunun için üzgünüz ancak, bu linke sadece premium üyeler erişebilir.

Filmbol Cloud



Konu ile Alakalı Benzer Konular
Konular Yazar Yorumlar Okunma Son Yorum
Filmin Yayınlanma Tarihi: 2019
Hain (The Traitor / Il traditore) - 2019 - TR+ORG - 720P BroserBros 0 23 , Saat: 16:04
Son Yorum: BroserBros
Filmin Yayınlanma Tarihi: 2020
All Together Now (All Together Now) - 2020 - TR+ORG - 720P BroserBros 0 21 , Saat: 15:48
Son Yorum: BroserBros
Filmin Yayınlanma Tarihi: 2018
Vita & Virginia (Vita ve Virginia) - 2018 - TR+ORG - 720P BroserBros 0 20 , Saat: 15:31
Son Yorum: BroserBros
Filmin Yayınlanma Tarihi: 2019
Ibiza (Ibiza) - 2019 - TR+ORG - 720P BroserBros 0 22 , Saat: 14:56
Son Yorum: BroserBros
Filmin Yayınlanma Tarihi: 2018
Yaramazlar Takımı: Zaman Yolcuları (Smeshariki. Dezha vyu) - 2018 - TR+ORG - 720P BroserBros 0 28 25-11-2020, Saat: 17:59
Son Yorum: BroserBros

Hızlı Menü: