Filmbol Forum Film İndir BRRip XviD v Kin (Kin) - 2018 - TR - BRRip XviD
Filmbol'da moderatör olmak ister misiniz? Bizimle iletişime geçmek için tıklayın!
Kin (Kin) - 2018 - TR - BRRip XviD
BroserBros
Kin (Kin) - 2018 - TR - BRRip XviD
0
79
  • Derecelendirme: 0/5 - 0 oy
  • 1
  • 2
  • 3
  • 4
  • 5
Konuyu Okuyanlar:1 Ziyaretçi
Şuan Online!
Filmin Yayınlanma Tarihi: 2018 
Şuan Online!
BroserBros Kurucu Admin
*******
Admin

Vizyon Tarihi


31 Ağustos 2018

imdb puanı


5,8 / 14,000

süre


102 dakika

Editör Puanı


5,5 / 10

Video Format: Avi


Audio Video Interleave (.AVI)

Ses Kodek: MP3


MPEG-1 Audio Layer III (MP3)

sürüm


h263 | BDRip XviD

Boyutlar


1,23 GB



 Kin



Maksimum düzeyde suç işlenen bir kentte artık polis kontrolü kalmamış ve şehri bu karanlık kişiler devralmıştır. Başrolümüz Eli ve onun ağabeyi ise bu kentte yaşamaktadır. Elinin ağabeyi bu karanlık kişilere borç takmıştır. Artık Elinin ve ailesinin hayatı riske girdiğinde onları kurtaracak tek şey mucizevi bir şeylerdir. Bu mucizevi şey ise Elinin özel güçleri olan bir silah bulduğunda gerçekleşecektir.

Kin (2018) (Kin) Filmi Imdb'den 14,000 kişi tarafından oylandı ve 5,8 puan aldı. Bu film için editör puanı 5,5 olarak belirlendi. İyi Seyirler!

Teknik Detaylar

Kod :
General
Complete name                            : /root/Desktop/2/Kin.2018.BDRip.XViD.TR.Filmbol.avi
Format                                  : AVI
Format/Info                              : Audio Video Interleave
File size                                : 1.23 GiB
Duration                                : 1h 42mn
Overall bit rate                        : 1 717 Kbps

Video
ID                                      : 0
Format                                  : MPEG-4 Visual
Format profile                          : Advanced Simple@L5
Format settings, BVOP                    : 2
Format settings, QPel                    : No
Format settings, GMC                    : No warppoints
Format settings, Matrix                  : Custom
Codec ID                                : XVID
Codec ID/Hint                            : XviD
Duration                                : 1h 42mn
Bit rate                                : 1 575 Kbps
Width                                    : 720 pixels
Height                                  : 304 pixels
Display aspect ratio                    : 2.35:1
Frame rate                              : 23.976 (24000/1001) fps
Color space                              : YUV
Chroma subsampling                      : 4:2:0
Bit depth                                : 8 bits
Scan type                                : Progressive
Compression mode                        : Lossy
Bits/(Pixel*Frame)                      : 0.300
Stream size                              : 1.13 GiB (92%)
Writing library                          : XviD 73

Audio
ID                                      : 1
Format                                  : MPEG Audio
Format version                          : Version 1
Format profile                          : Layer 3
Mode                                    : Joint stereo
Mode extension                          : MS Stereo
Codec ID                                : 55
Codec ID/Hint                            : MP3
Duration                                : 1h 42mn
Bit rate mode                            : Constant
Bit rate                                : 128 Kbps
Channel(s)                              : 2 channels
Sampling rate                            : 48.0 KHz
Compression mode                        : Lossy
Stream size                              : 94.2 MiB (7%)
Alignment                                : Aligned on interleaves
Interleave, duration                    : 24 ms (0.58 video frame)
Writing library                          : LAME3.99.5

Film Detayları


 Kin

 Kin

 Kin


Film Fragmanı


Film Detayları


Uptobox ile indir

1Fichier ile indir

1Fichier'den İndiremiyor musun? Tıklayın!


Mega ile indir

Bunun için üzgünüz ancak, bu linke sadece premium üyeler erişebilir.

Filmbol Cloud



Konu ile Alakalı Benzer Konular
Konular Yazar Yorumlar Okunma Son Yorum
Filmin Yayınlanma Tarihi: 2020
Deathstroke Şövalyeler ve Ejderhalar (Deathstroke Knights & Dragons: The Movie) - 2020 - TR - BRRip XviD BroserBros 0 18 , Saat: 18:30
Son Yorum: BroserBros
Filmin Yayınlanma Tarihi: 2019
15 Dakika Savaş (L'intervention) - 2019 - TR - BRRip XviD BroserBros 0 19 , Saat: 17:42
Son Yorum: BroserBros
Filmin Yayınlanma Tarihi: 2020
Sürprizli Gece (The Sleepover) - 2020 - TR - BRRip XviD BroserBros 0 21 , Saat: 16:18
Son Yorum: BroserBros
Filmin Yayınlanma Tarihi: 2020
Feride (Feride) - 2020 - TR - BRRip XviD BroserBros 0 36 22-11-2020, Saat: 17:58
Son Yorum: BroserBros
Filmin Yayınlanma Tarihi: 2019
Gel Babacığına (Come to Daddy) - 2019 - TR - BRRip XviD BroserBros 0 32 22-11-2020, Saat: 17:43
Son Yorum: BroserBros

Hızlı Menü: