Filmbol Forum Film İndir BRRip XviD v Kemiklerin Mirası (The Legacy of the Bones) - 2019 - TR - BRRip XviD
Moderatör Alımları Başladı! Başvuru yapmak için tıklayın.
Filmbol Premium'da %50'e varan indirim fırsatı!
Kemiklerin Mirası (The Legacy of the Bones) - 2019 - TR - BRRip XviD
BroserBros
Kemiklerin Mirası (The Legacy of the Bones) - 2019 - TR - BRRip XviD
0
69
  • Derecelendirme: 0/5 - 0 oy
  • 1
  • 2
  • 3
  • 4
  • 5
Konuyu Okuyanlar:1 Ziyaretçi
Şuan Online!
Filmin Yayınlanma Tarihi: 2019 
Şuan Online!
BroserBros Kurucu Admin
*******
Admin

Vizyon Tarihi


05 Aralık 2019

imdb puanı


6,2 / 1,500

süre


121 dakika

Editör Puanı


6,0 / 10

Video Format: Avi


Audio Video Interleave (.AVI)

Ses Kodek: MP3


MPEG-1 Audio Layer III (MP3)

sürüm


h263 | HDRip XviD

Boyutlar


0,93 GB



 Kemiklerin Mirası



Dokuz aylık hamile bir kadın olan müfettiş Amaia Salazar, üvey kızı Johana Márquez’in tecavüzünden ve cinayetinden sorumlu tutulan kişi Jason Medina’nın duruşması için beklemektedir. Duruşmadan hemen önce Medina cebinde bir notla mahkeme salonunun tuvaletinde ölü bulunur. Notta ise sadece “Tarttalo” yazmaktadır. Bu olay Amaia’nın erken doğum yapmasına neden olur. Doğumdan sonra Amaia’ya iki vaka devredilecek, olayların arkasındaki sır perdesi aralanacaktır.

Kemiklerin Mirası (2019) (The Legacy of the Bones) Filmi Imdb'den 1,500 kişi tarafından oylandı ve 6,2 puan aldı. Bu film için editör puanı 6,0 olarak belirlendi. İyi Seyirler!

Teknik Detaylar

Kod :
General
Complete name                            : /root/Desktop/1/Kemiklerin.Mirası.2019.HDRip.XViD.TR.Filmbol.avi
Format                                  : AVI
Format/Info                              : Audio Video Interleave
File size                                : 936 MiB
Duration                                : 2h 1mn
Overall bit rate                        : 1 078 Kbps

Video
ID                                      : 0
Format                                  : MPEG-4 Visual
Format profile                          : Simple@L5
Format settings, BVOP                    : No
Format settings, QPel                    : No
Format settings, GMC                    : No warppoints
Format settings, Matrix                  : Default (H.263)
Codec ID                                : XVID
Codec ID/Hint                            : XviD
Duration                                : 2h 1mn
Bit rate                                : 937 Kbps
Width                                    : 720 pixels
Height                                  : 302 pixels
Display aspect ratio                    : 2.40:1
Frame rate                              : 24.000 fps
Color space                              : YUV
Chroma subsampling                      : 4:2:0
Bit depth                                : 8 bits
Scan type                                : Progressive
Compression mode                        : Lossy
Bits/(Pixel*Frame)                      : 0.180
Stream size                              : 814 MiB (87%)
Writing library                          : Lavc58.35.100

Audio
ID                                      : 1
Format                                  : MPEG Audio
Format version                          : Version 1
Format profile                          : Layer 3
Mode                                    : Joint stereo
Mode extension                          : MS Stereo
Codec ID                                : 55
Codec ID/Hint                            : MP3
Duration                                : 2h 1mn
Bit rate mode                            : Constant
Bit rate                                : 128 Kbps
Channel(s)                              : 2 channels
Sampling rate                            : 48.0 KHz
Compression mode                        : Lossy
Stream size                              : 111 MiB (12%)
Alignment                                : Aligned on interleaves
Interleave, duration                    : 24 ms (0.58 video frame)

Film Detayları


 Kemiklerin Mirası

 Kemiklerin Mirası

 Kemiklerin Mirası


Film Fragmanı


Film Detayları


Uptobox ile indir

1Fichier ile indir

1Fichier'den İndiremiyor musun? Tıklayın!


Mega ile indir

Bunun için üzgünüz ancak, bu linke sadece premium üyeler erişebilir.

Filmbol Cloud



Konu ile Alakalı Benzer Konular
Konular Yazar Yorumlar Okunma Son Yorum
Filmin Yayınlanma Tarihi: 2018
Seviye 16 (Level 16) - 2018 - TR - BRRip XviD BroserBros 0 79 04-07-2020, Saat: 21:27
Son Yorum: BroserBros
Filmin Yayınlanma Tarihi: 2018
Küçük Orman (Little Woods) - 2018 - TR - BRRip XviD BroserBros 0 79 04-07-2020, Saat: 19:58
Son Yorum: BroserBros
Filmin Yayınlanma Tarihi: 2018
Suda Ölüm (Dead in the Water) - 2018 - TR - BRRip XviD BroserBros 0 77 04-07-2020, Saat: 19:40
Son Yorum: BroserBros
Filmin Yayınlanma Tarihi: 2019
Aşkı Beklerken (Deux moi - Someone, Somewhere) - 2019 - TR - BRRip XviD BroserBros 0 49 03-07-2020, Saat: 14:17
Son Yorum: BroserBros
Filmin Yayınlanma Tarihi: 2019
Hellboy (Hellboy) - 2019 - TR - BRRip XviD BroserBros 0 58 03-07-2020, Saat: 12:39
Son Yorum: BroserBros

Hızlı Menü: