Filmbol Forum Film İndir 720P v Kemiklerin Mirası (The Legacy of the Bones) - 2019 - TR - 720P
Moderatör Alımları Başladı! Başvuru yapmak için tıklayın.
Filmbol Premium'da %50'e varan indirim fırsatı!
Kemiklerin Mirası (The Legacy of the Bones) - 2019 - TR - 720P
BroserBros
Kemiklerin Mirası (The Legacy of the Bones) - 2019 - TR - 720P
0
131
  • Derecelendirme: 0/5 - 0 oy
  • 1
  • 2
  • 3
  • 4
  • 5
Konuyu Okuyanlar:1 Ziyaretçi
Şuan Offine!
Filmin Yayınlanma Tarihi: 2019 
Şuan Offine!
BroserBros Kurucu Admin
*******
Admin

Vizyon Tarihi


05 Aralık 2019

imdb puanı


6,2 / 1,500

süre


121 dakika

Editör Puanı


6,0 / 10

Video Format: Mkv


Matroska (.MKV)

Ses Kodek: AC3


Audio Coding 3 (AC3)

sürüm


x264 | 720P | BLURAY

Boyutlar


1,40 GB



 Kemiklerin Mirası



Dokuz aylık hamile bir kadın olan müfettiş Amaia Salazar, üvey kızı Johana Márquez’in tecavüzünden ve cinayetinden sorumlu tutulan kişi Jason Medina’nın duruşması için beklemektedir. Duruşmadan hemen önce Medina cebinde bir notla mahkeme salonunun tuvaletinde ölü bulunur. Notta ise sadece “Tarttalo” yazmaktadır. Bu olay Amaia’nın erken doğum yapmasına neden olur. Doğumdan sonra Amaia’ya iki vaka devredilecek, olayların arkasındaki sır perdesi aralanacaktır.

Kemiklerin Mirası (2019) (The Legacy of the Bones) Filmi Imdb'den 1,500 kişi tarafından oylandı ve 6,2 puan aldı. Bu film için editör puanı 6,0 olarak belirlendi. İyi Seyirler!

Teknik Detaylar

Kod :
General
Unique ID                                : 136789014625226234612153796649531009299 (0x66E89B1E6CBBB2B618C919329A40E913)
Complete name                            : /root/Desktop/1/Kemiklerin.Mirası.2019.720p.NF.WEB-DL.x264.TR.Filmbol.mkv
Format                                  : Matroska
Format version                          : Version 4 / Version 2
File size                                : 1.40 GiB
Duration                                : 2h 1mn
Overall bit rate                        : 1 656 Kbps
Movie name                              : Kemiklerin Mirası (2019) - Filmbol.org
Encoded date                            : UTC 2020-04-21 07:53:15
Writing application                      : mkvmerge v8.8.0 ('Wind at my back') 64bit
Writing library                          : libebml v1.3.3 + libmatroska v1.4.4

Video
ID                                      : 1
Format                                  : AVC
Format/Info                              : Advanced Video Codec
Format profile                          : Main@L3.1
Format settings, CABAC                  : Yes
Format settings, ReFrames                : 2 frames
Codec ID                                : V_MPEG4/ISO/AVC
Duration                                : 2h 1mn
Bit rate                                : 1 270 Kbps
Width                                    : 1 280 pixels
Height                                  : 720 pixels
Display aspect ratio                    : 16:9
Frame rate mode                          : Constant
Frame rate                              : 24.000 fps
Color space                              : YUV
Chroma subsampling                      : 4:2:0
Bit depth                                : 8 bits
Scan type                                : Progressive
Bits/(Pixel*Frame)                      : 0.057
Stream size                              : 1.08 GiB (77%)
Title                                    : 720P - Filmbol.org
Default                                  : Yes
Forced                                  : No

Audio
ID                                      : 2
Format                                  : AC-3
Format/Info                              : Audio Coding 3
Mode extension                          : CM (complete main)
Format settings, Endianness              : Big
Codec ID                                : A_AC3
Duration                                : 2h 1mn
Bit rate mode                            : Constant
Bit rate                                : 384 Kbps
Channel(s)                              : 6 channels
Channel positions                        : Front: L C R, Side: L R, LFE
Sampling rate                            : 48.0 KHz
Frame rate                              : 31.250 fps (1536 spf)
Compression mode                        : Lossy
Stream size                              : 333 MiB (23%)
Title                                    : Türkçe
Language                                : Turkish
Default                                  : Yes
Forced                                  : No

Text
ID                                      : 3
Format                                  : UTF-8
Codec ID                                : S_TEXT/UTF8
Codec ID/Info                            : UTF-8 Plain Text
Duration                                : 2h 0mn
Bit rate                                : 4 bps
Count of elements                        : 116
Stream size                              : 3.59 KiB (0%)
Title                                    : KISIM
Language                                : Turkish
Default                                  : Yes
Forced                                  : Yes

Film Detayları


 Kemiklerin Mirası

 Kemiklerin Mirası

 Kemiklerin Mirası


Film Fragmanı


Film Detayları

Uptobox ile indir

1Fichier ile indir

1Fichier'den İndiremiyor musun? Tıklayın!


Mega ile indir

Bunun için üzgünüz ancak, bu linke sadece premium üyeler erişebilir.

Filmbol Cloud



Konu ile Alakalı Benzer Konular
Konular Yazar Yorumlar Okunma Son Yorum
Filmin Yayınlanma Tarihi: 2020
The Hunt (Av) - 2020 - TR+ORG - 720P BroserBros 0 188 18-09-2020, Saat: 19:28
Son Yorum: BroserBros
Filmin Yayınlanma Tarihi: 2018
Gözbebeğim (Pupille) - 2018 - TR+ORG - 720P BroserBros 0 188 18-09-2020, Saat: 13:02
Son Yorum: BroserBros
  Umut Vadisi (Hope Gap) - 2019 - TR+ORG - 720P BroserBros 0 181 18-09-2020, Saat: 12:51
Son Yorum: BroserBros
Filmin Yayınlanma Tarihi: 2019
Cep Herkülü: Naim Süleymanoğlu (Cep Herkülü: Naim Süleymanoğlu) - 2019 - TR+ORG - 720P BroserBros 0 135 15-09-2020, Saat: 21:51
Son Yorum: BroserBros
Filmin Yayınlanma Tarihi: 2020
Malibu Rescue: Yeni Dalga (Malibu Rescue: The Next Wave) - 2020 - TR+ORG - 720P BroserBros 0 139 13-09-2020, Saat: 20:54
Son Yorum: BroserBros

Hızlı Menü: