Hoşgeldin, Ziyaretçi: Giriş Yap Üye Ol


stats
Adblock'u kapattıysanız tıklayın.
Hoşgeldiniz!
Filmbol'u tercih ettiğiniz için teşekkürler, ancak ablock kullanarak devam edemezsiniz.
Merak etmeyin. Heryerden ardı ardına çıkan reklamlar görmeyeceksiniz :)

Sadece site içi 1 reklam göreceksin ve bu site gezintini etkilemeyecek.
Konuyu Oyla:
  • Derecelendirme: 0/5 - 0 oy
  • 1
  • 2
  • 3
  • 4
  • 5
Title: Keanu Türkçe Dublaj m1080P İndir
Gösterim Stili
#1
Filmin Yayınlanma Tarihi: 2016 

indirme türü


Bulut + Premium

vizyon tarihi


29 Nisan 2016

Boyutlar


1,55GB

diller


[TR]

altyazilar


Yok [Eklenebilir]

Video Format: Mkv


Matroska (.MKV)

Video Detay


MPEG-4, 1999 Kbps, 1,36GB

imdb puanı


6,3 / 10,0 / 30,000

süre


100 dakika

Ses Kodek: AC3


Audio Coding 3 (AC3)

Ses Detay


224 Kbps, 2 Kanal, 160 Mb

rarsifresi


filmbol.org

Editör Puanı


6,5

Genislik Yukseklik


1920x800

sürüm


x264 | m1080P



Film Detayları

Aynı şehirde yaşayan ve pek de parlak sayılmayan iki kuzen Clarence and Rell bir gün eve gelirler ve Rell'in çok sevdiği kedisi Keanu'nun kaçırıldığını görürler. Keanu'yu geri almak için harekete geçen ikili kendilerini bir anda çete savaşının içerisinde bulur. 

"Key & Peele" skeçlerinin yaratıcı ekibi bu kez sinemaya geçiş yapıyor. Yönetmen koltuğunda Peter Atencio'nun oturduğu komedi yapımının başrollerini ise Keegan-Michael Key ve Jordan Peele üstleniyor. Komedi ikilisinin bir kahkaha tufanı yaratacağı filmin senaryosu ise Alex Rubens ve Peele tarafından yazıldı.


Teknik Detaylar
Kod:
General
Format                                   : Matroska
Format version                           : Version 4 / Version 2
File size                                : 1.55 GiB
Duration                                 : 1h 39mn
Overall bit rate                         : 2 225 Kbps

Video
ID                                       : 1
Format                                   : AVC
Format/Info                              : Advanced Video Codec
Format profile                           : High@L4.1
Format settings, CABAC                   : Yes
Format settings, ReFrames                : 5 frames
Codec ID                                 : V_MPEG4/ISO/AVC
Duration                                 : 1h 39mn
Bit rate                                 : 1 999 Kbps
Width                                    : 1 920 pixels
Height                                   : 800 pixels
Display aspect ratio                     : 2.40:1
Frame rate mode                          : Constant
Frame rate                               : 23.976 fps
Color space                              : YUV
Chroma subsampling                       : 4:2:0
Bit depth                                : 8 bits
Scan type                                : Progressive
Bits/(Pixel*Frame)                       : 0.054
Stream size                              : 1.36 GiB (88%)
Title                                    : m1080P - Filmbol.org
Writing library                          : x264 core 148 r2638 7599210
Default                                  : Yes
Forced                                   : No
Color primaries                          : BT.709
Matrix coefficients                      : BT.709

Audio
ID                                       : 2
Format                                   : AC-3
Format/Info                              : Audio Coding 3
Mode extension                           : CM (complete main)
Format settings, Endianness              : Big
Codec ID                                 : A_AC3
Duration                                 : 1h 39mn
Bit rate mode                            : Constant
Bit rate                                 : 224 Kbps
Channel(s)                               : 2 channels
Channel positions                        : Front: L R
Sampling rate                            : 48.0 KHz
Bit depth                                : 16 bits
Compression mode                         : Lossy
Stream size                              : 160 MiB (10%)
Title                                    : Türkçe - Filmbol.org
Language                                 : Turkish
Default                                  : Yes
Forced                                   : No



Film Detayları


Keanu

Keanu

Keanu

Keanu

Keanu


Film Fragmanı


Film Detayları

Mini 1080P İndir


Turbobit İle İndir

Mega ile indir

Uptobox ile indir

Mypcloud ile indir

 
Cevapla
  


Hızlı Menü:


Browsing: 1 Ziyaretçi