Filmbol Forum Film İndir 720P v Kayıp Prenses (Vykradena pryntsesa) Türkçe Dublaj BLURAY 720P İndir
Mega linklerinin şikayet edilmemesi için global erişime kapatıp sadece yorum yapanlara açıyoruz. Bu linkleri gizleme işlemini mecburen yapıyoruz ve yorum yapmanızın siteye değil size faydası vardır. Teşekürler yazmayı çok görüp, Random/Spam mesajlar atarak Mega linklerini açmaya çalışan kullanıcılara önce süresiz ban, devam ederse IP ban atacağız.
Filmbol'da moderatör olmak ister misiniz? Bizimle iletişime geçmek için tıklayın!
Kayıp Prenses (Vykradena pryntsesa) Türkçe Dublaj BLURAY 720P İndir
BroserBros
Kayıp Prenses (Vykradena pryntsesa) Türkçe Dublaj BLURAY 720P İndir
0
408
  • Derecelendirme: 0/5 - 0 oy
  • 1
  • 2
  • 3
  • 4
  • 5
Konuyu Okuyanlar:1 Ziyaretçi
Şuan Online!
Filmin Yayınlanma Tarihi: 2018 
WWW
Şuan Online!
BroserBros Kurucu Admin
*******
Admin








Kayıp Prenses




Teknik Detaylar


Kod :
General
Unique ID                                : 52223369534979392482699119828553480570 (0x2749DAE90A7760BEA6B8966C9EA4B97A)
Complete name                            : /root/Desktop/11/Kayıp.Prenses.2018.720p.WEB.x264.TR.Filmbol.mkv
Format                                   : Matroska
Format version                           : Version 4 / Version 2
File size                                : 1.07 GiB
Duration                                 : 1h 30mn
Overall bit rate                         : 1 684 Kbps
Movie name                               : Kayıp Prenses (2018) - Filmbol.org
Encoded date                             : UTC 2020-01-05 02:34:31
Writing application                      : mkvmerge v35.0.0 ('All The Love In The World') 64-bit
Writing library                          : libebml v1.3.9 + libmatroska v1.5.2

Video
ID                                       : 1
Format                                   : AVC
Format/Info                              : Advanced Video Codec
Format profile                           : [email protected]
Format settings, CABAC                   : Yes
Format settings, ReFrames                : 2 frames
Codec ID                                 : V_MPEG4/ISO/AVC
Duration                                 : 1h 30mn
Bit rate                                 : 1 298 Kbps
Width                                    : 1 280 pixels
Height                                   : 536 pixels
Display aspect ratio                     : 2.40:1
Frame rate mode                          : Constant
Frame rate                               : 24.000 fps
Color space                              : YUV
Chroma subsampling                       : 4:2:0
Bit depth                                : 8 bits
Scan type                                : Progressive
Bits/(Pixel*Frame)                       : 0.079
Stream size                              : 844 MiB (77%)
Title                                    : 720P - Filmbol.org
Language                                 : English
Default                                  : Yes
Forced                                   : No

Audio
ID                                       : 2
Format                                   : AC-3
Format/Info                              : Audio Coding 3
Mode extension                           : CM (complete main)
Format settings, Endianness              : Big
Codec ID                                 : A_AC3
Duration                                 : 1h 30mn
Bit rate mode                            : Constant
Bit rate                                 : 384 Kbps
Channel(s)                               : 6 channels
Channel positions                        : Front: L C R, Side: L R, LFE
Sampling rate                            : 48.0 KHz
Frame rate                               : 31.250 fps (1536 spf)
Compression mode                         : Lossy
Stream size                              : 250 MiB (23%)
Title                                    : Türkçe - Filmbol.org
Language                                 : Turkish
Default                                  : Yes
Forced                                   : No

Film Detayları


Kayıp Prenses

Kayıp Prenses

Kayıp Prenses


Film Fragmanı


Film Detayları

Mini 720P İndir



Uptobox ile indir

1Fichier ile indir

1Fichier'den İndiremiyor musun? Tıklayın!


Mega linki şuan da gizli. Kullanıma açmak için konuya yorum yapın ve ardından sayfayı yenileyin.

Mega


MediaFire ile indir



Konu ile Alakalı Benzer Konular
Konular Yazar Yorumlar Okunma Son Yorum
Filmin Yayınlanma Tarihi: 2019
Silahlar Fora (Guns Akimbo) - 2019 - TR+ORG - 720P | tt6902676 TheSteeL 1 44 , Saat: 00:44
Son Yorum: stb
Filmin Yayınlanma Tarihi: 2019
İmkansız Canavarlar (Impossible Monsters) - 2019 - TR+ORG - 720P | tt4328094 TheSteeL 0 34 , Saat: 21:52
Son Yorum: TheSteeL
Filmin Yayınlanma Tarihi: 2018
Venom: Zehirli Öfke (Venom) - 2018 - TR+ORG - 720P | tt1270797 BroserBros 17 2,494 , Saat: 12:17
Son Yorum: BroserBros
Filmin Yayınlanma Tarihi: 2016
Batman v Superman: Adaletin Şafağı (Batman v Superman: Dawn of Justice) - 2016 - TR+ORG - 720P | tt2975590 BroserBros 3 1,817 , Saat: 12:13
Son Yorum: BroserBros
Filmin Yayınlanma Tarihi: 2020
Yarın Yokmuş Gibi (Palm Springs) - 2020 - TR+ORG - 720P | tt9484998 TheSteeL 0 70 , Saat: 01:18
Son Yorum: TheSteeL

Hızlı Menü: