Filmbol Forum Film İndir 720P v Katil Bebek Geri Döndü (Charlotte 2) - 2019 - TR+ORG - 720P
Moderatör Alımları Başladı! Başvuru yapmak için tıklayın.
Filmbol Premium'da %50'e varan indirim fırsatı!
Katil Bebek Geri Döndü (Charlotte 2) - 2019 - TR+ORG - 720P
BroserBros
Katil Bebek Geri Döndü (Charlotte 2) - 2019 - TR+ORG - 720P
0
183
  • Derecelendirme: 0/5 - 0 oy
  • 1
  • 2
  • 3
  • 4
  • 5
Konuyu Okuyanlar:1 Ziyaretçi
Şuan Offine!
Filmin Yayınlanma Tarihi: 2019 
Şuan Offine!
BroserBros Kurucu Admin
*******
Admin

Vizyon Tarihi


21 Haziran 2019

imdb puanı


5,8 / 500

süre


76 dakika

Editör Puanı


5,5 / 10

Video Format: Mkv


Matroska (.MKV)

Ses Kodek: AC3


Audio Coding 3 (AC3)

sürüm


x264 | 720P | WEB-DL

Boyutlar


0,71 GB



 Katil Bebek Geri Döndü



Yalnız yaşayan bir genç kadının kapısını bir gece çalınır. Kadın kapıyı açtığında karşısında kimseyi bulamaz. Sadece bir hediye paketi gören kadın, merakla hediye paketini açar. Hediye paketinin içinden garip bir şekilde Voodoo oyuncak bebeğinden çıkar. Kadın onu dışarı atmak yerine hediye olarak kabul ettiği için evinde alır ancak bu hareketinden sonra hayatını tamamen değişir. Çünkü voodoo bebek canlanacaktır...

Katil Bebek Geri Döndü (2019) (Charlotte 2) Filmi Imdb'den 500 kişi tarafından oylandı ve 5,8 puan aldı. Bu film için editör puanı 5,5 olarak belirlendi. İyi Seyirler!

Teknik Detaylar

Kod :
General
Unique ID                                : 167766006890524324870996409588141711143 (0x7E368EC0F9BF5F6D408AD333FC52DF27)
Complete name                            : /root/Desktop/2/Charlotte.2.2019.720p.WEB-DL.x264.TR.ENG.Filmbol.mkv
Format                                  : Matroska
Format version                          : Version 4 / Version 2
File size                                : 713 MiB
Duration                                : 1h 16mn
Overall bit rate mode                    : Variable
Overall bit rate                        : 1 304 Kbps
Movie name                              : Charlotte 2 (2019) - Filmbol.org
Encoded date                            : UTC 2020-05-08 10:36:25
Writing application                      : mkvmerge v8.8.0 ('Wind at my back') 64bit
Writing library                          : libebml v1.3.3 + libmatroska v1.4.4

Video
ID                                      : 1
Format                                  : AVC
Format/Info                              : Advanced Video Codec
Format profile                          : High@L3.1
Format settings, CABAC                  : Yes
Format settings, ReFrames                : 4 frames
Codec ID                                : V_MPEG4/ISO/AVC
Duration                                : 1h 16mn
Bit rate mode                            : Variable
Bit rate                                : 918 Kbps
Maximum bit rate                        : 40.0 Mbps
Width                                    : 1 280 pixels
Height                                  : 720 pixels
Display aspect ratio                    : 16:9
Frame rate mode                          : Constant
Frame rate                              : 23.976 (24000/1001) fps
Color space                              : YUV
Chroma subsampling                      : 4:2:0
Bit depth                                : 8 bits
Scan type                                : Progressive
Bits/(Pixel*Frame)                      : 0.042
Stream size                              : 502 MiB (70%)
Title                                    : Filmbol.org
Default                                  : Yes
Forced                                  : No

Audio #1
ID                                      : 2
Format                                  : AC-3
Format/Info                              : Audio Coding 3
Mode extension                          : CM (complete main)
Format settings, Endianness              : Big
Codec ID                                : A_AC3
Duration                                : 1h 16mn
Bit rate mode                            : Constant
Bit rate                                : 192 Kbps
Channel(s)                              : 2 channels
Channel positions                        : Front: L R
Sampling rate                            : 48.0 KHz
Frame rate                              : 31.250 fps (1536 spf)
Compression mode                        : Lossy
Stream size                              : 105 MiB (15%)
Title                                    : Filmbol.org
Language                                : Turkish
Default                                  : Yes
Forced                                  : No

Audio #2
ID                                      : 3
Format                                  : AC-3
Format/Info                              : Audio Coding 3
Mode extension                          : CM (complete main)
Format settings, Endianness              : Big
Codec ID                                : A_AC3
Duration                                : 1h 16mn
Bit rate mode                            : Constant
Bit rate                                : 192 Kbps
Channel(s)                              : 2 channels
Channel positions                        : Front: L R
Sampling rate                            : 48.0 KHz
Frame rate                              : 31.250 fps (1536 spf)
Compression mode                        : Lossy
Stream size                              : 105 MiB (15%)
Title                                    : Filmbol.org
Language                                : English
Default                                  : No
Forced                                  : No

Text
ID                                      : 4
Format                                  : UTF-8
Codec ID                                : S_TEXT/UTF8
Codec ID/Info                            : UTF-8 Plain Text
Duration                                : 1h 15mn
Bit rate                                : 27 bps
Count of elements                        : 677
Stream size                              : 15.4 KiB (0%)
Title                                    : Filmbol.org
Language                                : Turkish
Default                                  : No
Forced                                  : No

Film Detayları


 Katil Bebek Geri Döndü

 Katil Bebek Geri Döndü

 Katil Bebek Geri Döndü


Film Fragmanı


Film Detayları

Uptobox ile indir

1Fichier ile indir

1Fichier'den İndiremiyor musun? Tıklayın!


Mega ile indir

Bunun için üzgünüz ancak, bu linke sadece premium üyeler erişebilir.

Filmbol Cloud



Konu ile Alakalı Benzer Konular
Konular Yazar Yorumlar Okunma Son Yorum
Filmin Yayınlanma Tarihi: 2020
The Hunt (Av) - 2020 - TR+ORG - 720P BroserBros 0 276 18-09-2020, Saat: 19:28
Son Yorum: BroserBros
Filmin Yayınlanma Tarihi: 2018
Gözbebeğim (Pupille) - 2018 - TR+ORG - 720P BroserBros 0 274 18-09-2020, Saat: 13:02
Son Yorum: BroserBros
  Umut Vadisi (Hope Gap) - 2019 - TR+ORG - 720P BroserBros 0 269 18-09-2020, Saat: 12:51
Son Yorum: BroserBros
Filmin Yayınlanma Tarihi: 2019
Cep Herkülü: Naim Süleymanoğlu (Cep Herkülü: Naim Süleymanoğlu) - 2019 - TR+ORG - 720P BroserBros 0 154 15-09-2020, Saat: 21:51
Son Yorum: BroserBros
Filmin Yayınlanma Tarihi: 2020
Malibu Rescue: Yeni Dalga (Malibu Rescue: The Next Wave) - 2020 - TR+ORG - 720P BroserBros 0 141 13-09-2020, Saat: 20:54
Son Yorum: BroserBros

Hızlı Menü: