Filmbol Forum Film İndir BRRip XviD v Katil Bebek Geri Döndü (Charlotte 2) - 2019 - TR - BRRip XviD
Moderatör Alımları Başladı! Başvuru yapmak için tıklayın.
Filmbol Premium'da %50'e varan indirim fırsatı!
Katil Bebek Geri Döndü (Charlotte 2) - 2019 - TR - BRRip XviD
BroserBros
Katil Bebek Geri Döndü (Charlotte 2) - 2019 - TR - BRRip XviD
0
187
  • Derecelendirme: 0/5 - 0 oy
  • 1
  • 2
  • 3
  • 4
  • 5
Konuyu Okuyanlar:1 Ziyaretçi
Şuan Offine!
Filmin Yayınlanma Tarihi: 2019 
Şuan Offine!
BroserBros Kurucu Admin
*******
Admin

Vizyon Tarihi


21 Haziran 2019

imdb puanı


5,8 / 500

süre


76 dakika

Editör Puanı


5,5 / 10

Video Format: Avi


Audio Video Interleave (.AVI)

Ses Kodek: MP3


MPEG-1 Audio Layer III (MP3)

sürüm


h263 | HDRip XviD

Boyutlar


0,47 GB



 Katil Bebek Geri Döndü



Yalnız yaşayan bir genç kadının kapısını bir gece çalınır. Kadın kapıyı açtığında karşısında kimseyi bulamaz. Sadece bir hediye paketi gören kadın, merakla hediye paketini açar. Hediye paketinin içinden garip bir şekilde Voodoo oyuncak bebeğinden çıkar. Kadın onu dışarı atmak yerine hediye olarak kabul ettiği için evinde alır ancak bu hareketinden sonra hayatını tamamen değişir. Çünkü voodoo bebek canlanacaktır...

Katil Bebek Geri Döndü (2019) (Charlotte 2) Filmi Imdb'den 500 kişi tarafından oylandı ve 5,8 puan aldı. Bu film için editör puanı 5,5 olarak belirlendi. İyi Seyirler!

Teknik Detaylar

Kod :
General
Complete name                            : /root/Desktop/2/Charlotte.2.2019.HDRip.XViD.TR.Filmbol.avi
Format                                  : AVI
Format/Info                              : Audio Video Interleave
File size                                : 474 MiB
Duration                                : 1h 16mn
Overall bit rate                        : 868 Kbps

Video
ID                                      : 0
Format                                  : MPEG-4 Visual
Format profile                          : Advanced Simple@L5
Format settings, BVOP                    : 2
Format settings, QPel                    : No
Format settings, GMC                    : No warppoints
Format settings, Matrix                  : Default (MPEG)
Codec ID                                : XVID
Codec ID/Hint                            : XviD
Duration                                : 1h 16mn
Bit rate                                : 727 Kbps
Width                                    : 720 pixels
Height                                  : 404 pixels
Display aspect ratio                    : 16:9
Frame rate                              : 23.976 (23976/1000) fps
Color space                              : YUV
Chroma subsampling                      : 4:2:0
Bit depth                                : 8 bits
Scan type                                : Progressive
Compression mode                        : Lossy
Bits/(Pixel*Frame)                      : 0.104
Stream size                              : 397 MiB (84%)
Writing library                          : XviD 64

Audio
ID                                      : 1
Format                                  : MPEG Audio
Format version                          : Version 1
Format profile                          : Layer 3
Mode                                    : Joint stereo
Mode extension                          : MS Stereo
Codec ID                                : 55
Codec ID/Hint                            : MP3
Duration                                : 1h 16mn
Bit rate mode                            : Constant
Bit rate                                : 128 Kbps
Channel(s)                              : 2 channels
Sampling rate                            : 48.0 KHz
Compression mode                        : Lossy
Stream size                              : 69.9 MiB (15%)
Alignment                                : Aligned on interleaves
Interleave, duration                    : 24 ms (0.58 video frame)
Writing library                          : LAME3.99.5

Film Detayları


 Katil Bebek Geri Döndü

 Katil Bebek Geri Döndü

 Katil Bebek Geri Döndü


Film Fragmanı


Film Detayları


Uptobox ile indir

1Fichier ile indir

1Fichier'den İndiremiyor musun? Tıklayın!


Mega ile indir

Bunun için üzgünüz ancak, bu linke sadece premium üyeler erişebilir.

Filmbol Cloud



Konu ile Alakalı Benzer Konular
Konular Yazar Yorumlar Okunma Son Yorum
Filmin Yayınlanma Tarihi: 2014
Yarının Sınırında (Edge of Tomorrow) - 2014 - TR - BRRip XviD BroserBros 1 138 20-10-2020, Saat: 15:13
Son Yorum: sectechno
Filmin Yayınlanma Tarihi: 2020
Holly Slept Over (Holly Slept Over) - 2020 - TR - BRRip XviD BroserBros 0 392 08-10-2020, Saat: 20:08
Son Yorum: BroserBros
Filmin Yayınlanma Tarihi: 2019
Rahat Kız (An Easy Girl) - 2019 - TR - BRRip XviD BroserBros 0 405 08-10-2020, Saat: 19:34
Son Yorum: BroserBros
Filmin Yayınlanma Tarihi: 2020
Mavi Korku 3 (Deep Blue Sea 3) - 2020 - TR - BRRip XviD BroserBros 0 495 03-10-2020, Saat: 21:11
Son Yorum: BroserBros
Filmin Yayınlanma Tarihi: 2018
Fast Color: Gücünü Serbest Bırak (Fast Color) - 2018 - TR - BRRip XviD BroserBros 0 132 03-10-2020, Saat: 16:46
Son Yorum: BroserBros

Hızlı Menü: