Filmbol Forum Film İndir 1080P v Kasırgada Vurgun (The Hurricane Heist) Türkçe Dubla BLURAY 1080P İndir
Filmbol'da moderatör olmak ister misiniz? Bizimle iletişime geçmek için tıklayın!
Kasırgada Vurgun (The Hurricane Heist) Türkçe Dubla BLURAY 1080P İndir
BroserBros
Kasırgada Vurgun (The Hurricane Heist) Türkçe Dubla BLURAY 1080P İndir
2
308
  • Derecelendirme: 0/5 - 0 oy
  • 1
  • 2
  • 3
  • 4
  • 5
Konuyu Okuyanlar:1 Ziyaretçi
Şuan Online!
Filmin Yayınlanma Tarihi: 2018 
Şuan Online!
BroserBros Kurucu Admin
*******
Admin

Vizyon Tarihi


01 Haziran 2018

imdb puanı


103 / 17,000

süre


103 dakika

Editör Puanı


5,5 / 10

Video Format: Mkv


Matroska (.MKV)

Ses Kodek: AC3


Audio Coding 3 (AC3)

sürüm


x264 | 1080P | BLURAY

Boyutlar


1,69



Hurricane Heist



Bir kasırga tehdidi altında, fırsatçı suçlular bir ‘ABD Mint’ tesisine sızarak 600 milyon dolar çalar. Kasırga, 5. kategori bir fırtınaya dönüşünce çok iyi hazırladıkları planları ters gider ve yalnızca bir Maliye Bakanlığı temsilcisinin (Maggie Grace) bildiği kasa dairesi şifresine ihtiyaç duyarlar. Fakat temsilci, kendisine beklenmedik bir müttefik bulmuştur: Kasırgalardan korkan fakat hırsızların kaçırdığı kardeşini kurtarmaya kararlı bir meteoroloji uzmanı (Toby Kebbell). Meteoroloji uzmanı Will, bu adrenalin dolu, dur durak bilmeyen aksiyon ve gerilim yolculuğunda galip gelmek için fırtına bilgisini bir silah olarak kullanır.

Kasırgada Vurgun (2018) (The Hurricane Heist) Filmi Imdb'den 17,000 kişi tarafından oylandı ve 103 puan aldı. Bu film için editör puanı 5,5 olarak belirlendi. İyi Seyirler!

Teknik Detaylar

Kod :
General Unique ID                                : 272395160136103802078511173660436643889 (0xCCED6649A5066889F61FDE29D994C031) Complete name                            : /root/Desktop/6/Kasırgada.Vurgun.2018.1080p.BluRay.x264.TR.Filmbol.mkv Format                                   : Matroska Format version                           : Version 4 / Version 2 File size                                : 1.69 GiB Duration                                 : 1h 43mn Overall bit rate                         : 2 344 Kbps Movie name                               : Kasırgada Vurgun (2018) - Filmbol.org Encoded date                             : UTC 2020-01-09 00:10:38 Writing application                      : mkvmerge v35.0.0 ('All The Love In The World') 64-bit Writing library                          : libebml v1.3.9 + libmatroska v1.5.2  Video ID                                       : 1 Format                                   : AVC Format/Info                              : Advanced Video Codec Format profile                           : High@L4.1 Format settings, CABAC                   : Yes Format settings, ReFrames                : 4 frames Codec ID                                 : V_MPEG4/ISO/AVC Duration                                 : 1h 43mn Bit rate                                 : 2 150 Kbps Width                                    : 1 920 pixels Height                                   : 800 pixels Display aspect ratio                     : 2.40:1 Frame rate mode                          : Constant Frame rate                               : 23.976 (24000/1001) fps Color space                              : YUV Chroma subsampling                       : 4:2:0 Bit depth                                : 8 bits Scan type                                : Progressive Bits/(Pixel*Frame)                       : 0.058 Stream size                              : 1.55 GiB (92%) Title                                    : 1080P - Filmbol.org Writing library                          : x264 core 155 Encoding settings                        : cabac=1 / ref=4 / deblock=1:-1:-1 / analyse=0x3:0x133 / me=umh / subme=9 / psy=1 / psy_rd=1.00:0.15 / mixed_ref=1 / me_range=24 / chroma_me=1 / trellis=2 / 8x8dct=1 / cqm=0 / deadzone=21,11 / fast_pskip=0 / chroma_qp_offset=-3 / threads=18 / lookahead_threads=1 / sliced_threads=0 / nr=0 / decimate=1 / interlaced=0 / bluray_compat=0 / constrained_intra=0 / bframes=3 / b_pyramid=2 / b_adapt=2 / b_bias=0 / direct=3 / weightb=1 / open_gop=0 / weightp=2 / keyint=250 / keyint_min=23 / scenecut=40 / intra_refresh=0 / rc_lookahead=60 / rc=2pass / mbtree=1 / bitrate=2150 / ratetol=1.0 / qcomp=0.60 / qpmin=0 / qpmax=69 / qpstep=4 / cplxblur=20.0 / qblur=0.5 / vbv_maxrate=31250 / vbv_bufsize=31250 / nal_hrd=none / filler=0 / ip_ratio=1.40 / aq=1:1.00 Default                                  : Yes Forced                                   : No  Audio ID                                       : 2 Format                                   : AC-3 Format/Info                              : Audio Coding 3 Mode extension                           : CM (complete main) Format settings, Endianness              : Big Codec ID                                 : A_AC3 Duration                                 : 1h 43mn Bit rate mode                            : Constant Bit rate                                 : 192 Kbps Channel(s)                               : 2 channels Channel positions                        : Front: L R Sampling rate                            : 48.0 KHz Frame rate                               : 31.250 fps (1536 spf) Compression mode                         : Lossy Stream size                              : 142 MiB (8%) Title                                    : Türkçe - Filmbol.org Language                                 : Turkish Default                                  : Yes Forced                                   : No

Film Detayları


Hurricane Heist

Hurricane Heist

Hurricane Heist


Film Fragmanı


Film Detayları

Mini 1080P İndir

Uptobox ile indir

1Fichier ile indir

1Fichier'den İndiremiyor musun? Tıklayın!


Mega ile indir

MediaFire ile indir

Şuan Offine!
Şuan Offine!
yalcnkuss Yeni Üye
*
Üye

  • Konular0
  • Mesajlar4
  • Rep puanı 0
İzlemeyen bin.pişman
Şuan Offine!
Şuan Offine!
Aspirin46 Süper Üye
***
Super Üye

  • Konular0
  • Mesajlar54
  • Rep puanı 0
SÜPER


Konu ile Alakalı Benzer Konular
Konular Yazar Yorumlar Okunma Son Yorum
Filmin Yayınlanma Tarihi: 2019
Tolkien (2019) Türkçe Dublaj BLURAY m1080P İndir BroserBros 4 427 , Saat: 15:29
Son Yorum: Rocklion17
Filmin Yayınlanma Tarihi: 2020
Deathstroke Şövalyeler ve Ejderhalar (Deathstroke Knights & Dragons: The Movie) - 2020 - TR+ORG - 1080P BroserBros 0 41 23-11-2020, Saat: 18:31
Son Yorum: BroserBros
Filmin Yayınlanma Tarihi: 2019
15 Dakika Savaş (L'intervention) - 2019 - TR+ORG - 1080P BroserBros 0 44 23-11-2020, Saat: 17:42
Son Yorum: BroserBros
Filmin Yayınlanma Tarihi: 2020
Sürprizli Gece (The Sleepover) - 2020 - TR+ORG - 1080P BroserBros 0 44 23-11-2020, Saat: 16:19
Son Yorum: BroserBros
Filmin Yayınlanma Tarihi: 2020
Feride (Feride) - 2020 - TR+ORG - 1080P BroserBros 0 75 22-11-2020, Saat: 20:24
Son Yorum: BroserBros

Hızlı Menü: