Filmbol Forum Film İndir 1080P v Karma (Karma) - 2018 - TR+ENG - 1080P
Moderatör Alımları Başladı! Başvuru yapmak için tıklayın.
Filmbol Premium'da %50'e varan indirim fırsatı!
Karma (Karma) - 2018 - TR+ENG - 1080P
BroserBros
Karma (Karma) - 2018 - TR+ENG - 1080P
0
230
  • Derecelendirme: 0/5 - 0 oy
  • 1
  • 2
  • 3
  • 4
  • 5
Konuyu Okuyanlar:1 Ziyaretçi
Şuan Online!
Filmin Yayınlanma Tarihi: 2018 
Şuan Online!
BroserBros Kurucu Admin
*******
Admin

Vizyon Tarihi


06 Ekim 2018

imdb puanı


4,4 / 500

süre


85 dakika

Editör Puanı


4,0 / 10

Video Format: Mkv


Matroska (.MKV)

Ses Kodek: AC3


Audio Coding 3 (AC3)

sürüm


x264 | 1080P | WEB-DL

Boyutlar


1,56 GB



 Karma



Manny okulunu bitirmiş ve bir iş aramaktadır. Pek iç açıcı işler yapmayan kayınpederide Manny'e bir iş teklifi sunar ve görevi suçluları tahliye etmektir. Manny mecburen bu işi kabul etse de, zaman geçtikçe içinde bulunduğu durumu anlamaya başlar...

Karma (2018) (Karma) Filmi Imdb'den 500 kişi tarafından oylandı ve 4,4 puan aldı. Bu film için editör puanı 4,0 olarak belirlendi. İyi Seyirler!

Teknik Detaylar

Kod :
General
Unique ID                                : 5035461669517029902096929839488797902 (0x3C9CB6D9CF66360EEF1C12A9A558CCE)
Complete name                            : /root/Desktop/2/Karma.2018.1080p.WEB-DL.x264.TR.ENG.Filmbol.mkv
Format                                  : Matroska
Format version                          : Version 4 / Version 2
File size                                : 1.56 GiB
Duration                                : 1h 25mn
Overall bit rate                        : 2 615 Kbps
Movie name                              : Karma (2018) - Filmbol.org
Encoded date                            : UTC 2020-05-02 06:57:43
Writing application                      : mkvmerge v8.8.0 ('Wind at my back') 64bit
Writing library                          : libebml v1.3.3 + libmatroska v1.4.4

Video
ID                                      : 1
Format                                  : AVC
Format/Info                              : Advanced Video Codec
Format profile                          : Main@L4
Format settings, CABAC                  : Yes
Format settings, ReFrames                : 2 frames
Format settings, GOP                    : M=1, N=25
Codec ID                                : V_MPEG4/ISO/AVC
Duration                                : 1h 25mn
Bit rate                                : 2 229 Kbps
Width                                    : 1 916 pixels
Height                                  : 1 072 pixels
Display aspect ratio                    : 16:9
Frame rate mode                          : Constant
Frame rate                              : 23.976 (24000/1001) fps
Color space                              : YUV
Chroma subsampling                      : 4:2:0
Bit depth                                : 8 bits
Scan type                                : Progressive
Bits/(Pixel*Frame)                      : 0.045
Stream size                              : 1.33 GiB (85%)
Title                                    : Filmbol.org
Language                                : English
Default                                  : Yes
Forced                                  : No

Audio #1
ID                                      : 2
Format                                  : AC-3
Format/Info                              : Audio Coding 3
Mode extension                          : CM (complete main)
Format settings, Endianness              : Big
Codec ID                                : A_AC3
Duration                                : 1h 25mn
Bit rate mode                            : Constant
Bit rate                                : 192 Kbps
Channel(s)                              : 2 channels
Channel positions                        : Front: L R
Sampling rate                            : 48.0 KHz
Frame rate                              : 31.250 fps (1536 spf)
Compression mode                        : Lossy
Stream size                              : 118 MiB (7%)
Title                                    : Filmbol.org
Language                                : Turkish
Default                                  : Yes
Forced                                  : No

Audio #2
ID                                      : 3
Format                                  : AC-3
Format/Info                              : Audio Coding 3
Mode extension                          : CM (complete main)
Format settings, Endianness              : Big
Codec ID                                : A_AC3
Duration                                : 1h 25mn
Bit rate mode                            : Constant
Bit rate                                : 192 Kbps
Channel(s)                              : 2 channels
Channel positions                        : Front: L R
Sampling rate                            : 48.0 KHz
Frame rate                              : 31.250 fps (1536 spf)
Compression mode                        : Lossy
Stream size                              : 118 MiB (7%)
Title                                    : Filmbol.org
Language                                : English
Default                                  : No
Forced                                  : No

Film Detayları


 Karma

 Karma

 Karma


Film Fragmanı


Film Detayları

Uptobox ile indir

1Fichier ile indir

1Fichier'den İndiremiyor musun? Tıklayın!


Mega ile indir

Bunun için üzgünüz ancak, bu linke sadece premium üyeler erişebilir.

Filmbol Cloud



Konu ile Alakalı Benzer Konular
Konular Yazar Yorumlar Okunma Son Yorum
Filmin Yayınlanma Tarihi: 2018
Gözbebeğim (Pupille) - 2018 - TR+ORG - 1080P BroserBros 0 3 47 dakika önce
Son Yorum: BroserBros
Filmin Yayınlanma Tarihi: 2019
Umut Vadisi (Hope Gap) - 2019 - TR+ORG - 1080P BroserBros 0 2 58 dakika önce
Son Yorum: BroserBros
Filmin Yayınlanma Tarihi: 2020
Görünmez Adam (The Invisible Man) - 2020 - TR+ORG - 1080P BroserBros 1 127 16-09-2020, Saat: 20:10
Son Yorum: berkangungor
Filmin Yayınlanma Tarihi: 2018
Climax (2018) Türkçe Dublaj BLURAY m1080P İndir BroserBros 10 974 15-09-2020, Saat: 18:34
Son Yorum: Rocklion17
Filmin Yayınlanma Tarihi: 2020
Malibu Rescue: Yeni Dalga (Malibu Rescue: The Next Wave) - 2020 - TR+ORG - 1080P BroserBros 0 128 13-09-2020, Saat: 20:55
Son Yorum: BroserBros

Hızlı Menü: