Filmbol Forum Film İndir 3D v Karlar Ülkesi (Frozen) - 2013 - TR+ORG - 3D
Moderatör Alımları Başladı! Başvuru yapmak için tıklayın.
Filmbol Premium'da %50'e varan indirim fırsatı!
Karlar Ülkesi (Frozen) - 2013 - TR+ORG - 3D
BroserBros
Karlar Ülkesi (Frozen) - 2013 - TR+ORG - 3D
0
179
  • Derecelendirme: 0/5 - 0 oy
  • 1
  • 2
  • 3
  • 4
  • 5
Konuyu Okuyanlar:4 Ziyaretçi
Şuan Online!
Filmin Yayınlanma Tarihi: 2013 
Şuan Online!
BroserBros Kurucu Admin
*******
Admin

Vizyon Tarihi


17 Ocak 2014

imdb puanı


7,4 / 560,000

süre


102 dakika

Editör Puanı


7,5 / 10

Video Format: Mkv


Matroska (.MKV)

Ses Kodek: AC3


Audio Coding 3 (AC3)

sürüm


x264 | 3D | BluRay

Boyutlar


1,72 GB



 Karlar Ülkesi



Krallık, Karlar Kraliçesi (Snow Queen)'nin laneti sonrasında ebediyen sürecek bir kış mevsimine mahkum edilmiştir. Bu krallıkta yaşamakta olan maceracı ve iyi kalpli Anna, Karlar Kraliçesi'ni bulup laneti sona erdirmesini sağlayarak, şehrinde yaşayan insanları eski güzel günlerine döndürmeye karar verir. Masalsı bir yolculuğu çıkan Anna'nın yol arkadaşı ise usta bir dağcı olan Kristoff'tur. Başarıya ulaşmaları için Karlar Kraliçesi'ni görüp tanıyabilmeleri gerekmektedir. Görünürde basit olan bu plan, izbe dağdaki yolculuk ilerledikçe zorlaşmaya başlar. Mitolojik yaratıklar ve ürkütücü büyüler eşliğinde süren yolculuğun her dönemecinde ayrı bir tehlike ortaya çıkar. Yolculuğun asıl zor yanı ise zamanla yarışıyor oldukları gerçeğidir.

Karlar Ülkesi (2013) (Frozen) Filmi Imdb'den 560,000 kişi tarafından oylandı ve 7,4 puan aldı. Bu film için editör puanı 7,5 olarak belirlendi. İyi Seyirler!

Teknik Detaylar

Kod :
General
Unique ID                                : 1542942871740770050908392105671224666 (0x12928F4F7D4DB97CA361E5F32156D5A)
Complete name                            : /root/Desktop/1/Karlar.Ülkesi.2013.3D.HSBS.BluRay.x264.TR.ENG.Filmbol.mkv
Format                                  : Matroska
Format version                          : Version 4 / Version 2
File size                                : 1.72 GiB
Duration                                : 1h 42mn
Overall bit rate mode                    : Variable
Overall bit rate                        : 2 412 Kbps
Movie name                              : Karlar Ülkesi - Frozen - 2013 | Filmbol.org
Encoded date                            : UTC 2020-06-12 08:27:42
Writing application                      : mkvmerge v8.8.0 ('Wind at my back') 64bit
Writing library                          : libebml v1.3.3 + libmatroska v1.4.4

Video
ID                                      : 1
Format                                  : AVC
Format/Info                              : Advanced Video Codec
Format profile                          : High@L4.1
Format settings, CABAC                  : Yes
Format settings, ReFrames                : 4 frames
Codec ID                                : V_MPEG4/ISO/AVC
Duration                                : 1h 42mn
Bit rate                                : 2 193 Kbps
Width                                    : 1 920 pixels
Height                                  : 1 080 pixels
Display aspect ratio                    : 16:9
Frame rate mode                          : Constant
Frame rate                              : 23.976 (24000/1001) fps
Original frame rate                      : 23.976 (23976/1000) fps
Color space                              : YUV
Chroma subsampling                      : 4:2:0
Bit depth                                : 8 bits
Scan type                                : Progressive
Bits/(Pixel*Frame)                      : 0.044
Stream size                              : 1.56 GiB (91%)
Title                                    : 3D - Filmbol.org
Writing library                          : x264 core 135 r2 f0c1c53
Encoding settings                        : cabac=1 / ref=4 / deblock=1:-1:-1 / analyse=0x3:0x133 / me=umh / subme=9 / psy=1 / psy_rd=1.00:0.15 / mixed_ref=1 / me_range=24 / chroma_me=1 / trellis=2 / 8x8dct=1 / cqm=0 / deadzone=21,11 / fast_pskip=0 / chroma_qp_offset=-3 / threads=18 / lookahead_threads=1 / sliced_threads=0 / nr=0 / decimate=1 / interlaced=0 / bluray_compat=0 / constrained_intra=0 / bframes=3 / b_pyramid=2 / b_adapt=2 / b_bias=0 / direct=3 / weightb=1 / open_gop=0 / weightp=2 / keyint=250 / keyint_min=23 / scenecut=40 / intra_refresh=0 / rc_lookahead=60 / rc=2pass / mbtree=1 / bitrate=2193 / ratetol=1.0 / qcomp=0.60 / qpmin=0 / qpmax=69 / qpstep=4 / cplxblur=20.0 / qblur=0.5 / vbv_maxrate=31250 / vbv_bufsize=31250 / nal_hrd=none / ip_ratio=1.40 / aq=1:1.00
Default                                  : Yes
Forced                                  : No
Color range                              : Limited
Color primaries                          : BT.709
Matrix coefficients                      : BT.709

Audio #1
ID                                      : 2
Format                                  : MPEG Audio
Format version                          : Version 1
Format profile                          : Layer 3
Codec ID                                : A_MPEG/L3
Codec ID/Hint                            : MP3
Duration                                : 1h 42mn
Bit rate mode                            : Variable
Bit rate                                : 124 Kbps
Channel(s)                              : 1 channel
Sampling rate                            : 48.0 KHz
Frame rate                              : 41.667 fps (1152 spf)
Compression mode                        : Lossy
Stream size                              : 90.5 MiB (5%)
Title                                    : Türkçe - Filmbol.org
Language                                : Turkish
Default                                  : Yes
Forced                                  : No

Audio #2
ID                                      : 3
Format                                  : AAC
Format/Info                              : Advanced Audio Codec
Format profile                          : LC
Codec ID                                : A_AAC
Duration                                : 1h 42mn
Bit rate                                : 93.7 Kbps
Channel(s)                              : 2 channels
Channel positions                        : Front: L R
Sampling rate                            : 48.0 KHz
Frame rate                              : 46.875 fps (1024 spf)
Compression mode                        : Lossy
Stream size                              : 68.5 MiB (4%)
Title                                    : İngilizce - Filmbol.org
Language                                : English
Default                                  : No
Forced                                  : No

Text
ID                                      : 4
Format                                  : UTF-8
Codec ID                                : S_TEXT/UTF8
Codec ID/Info                            : UTF-8 Plain Text
Duration                                : 1h 31mn
Bit rate                                : 64 bps
Count of elements                        : 1293
Stream size                              : 43.0 KiB (0%)
Title                                    : Türkçe Altyazı
Language                                : Turkish
Default                                  : Yes
Forced                                  : No

Film Detayları


 Karlar Ülkesi

 Karlar Ülkesi

 Karlar Ülkesi


Film Fragmanı


Film Detayları

Uptobox ile indir

1Fichier ile indir

1Fichier'den İndiremiyor musun? Tıklayın!


Mega ile indir

Bunun için üzgünüz ancak, bu linke sadece premium üyeler erişebilir.

Filmbol Cloud



Konu ile Alakalı Benzer Konular
Konular Yazar Yorumlar Okunma Son Yorum
Filmin Yayınlanma Tarihi: 2013
Çılgın Hırsız 2 (Despicable Me 2) - 2013 - TR+ORG - 3D BroserBros 0 234 12-06-2020, Saat: 20:41
Son Yorum: BroserBros
Filmin Yayınlanma Tarihi: 2013
Yerçekimi (Gravity) - 2013 - TR+ORG - 3D BroserBros 0 250 09-06-2020, Saat: 21:14
Son Yorum: BroserBros
Filmin Yayınlanma Tarihi: 2013
47 Ronin (47 Ronin) - 2013 - TR+ORG - 3D BroserBros 0 191 09-06-2020, Saat: 20:57
Son Yorum: BroserBros
Filmin Yayınlanma Tarihi: 2013
Tarzan (Tarzan) - 2013 - TR+ORG - 3D BroserBros 0 231 07-06-2020, Saat: 15:22
Son Yorum: BroserBros
Filmin Yayınlanma Tarihi: 2013
Şirinler 2 (The Smurfs 2) - 2013 - TR+ORG - 3D BroserBros 0 139 01-06-2020, Saat: 15:31
Son Yorum: BroserBros

Hızlı Menü: