Hoşgeldin, Ziyaretçi: Giriş Yap Üye Ol


Konuyu Oyla:
  • Derecelendirme: 0/5 - 0 oy
  • 1
  • 2
  • 3
  • 4
  • 5
Title: Karlar Kraliçesi 4: Sihirli Ayna (Snezhnaya koroleva) Türkçe Dublaj Brrip Xvid İndir
Gösterim Stili
#1
Filmin Yayınlanma Tarihi: 2019 

indirme türü


Bulut + Premium

vizyon tarihi


22 Şubat 2019

Boyutlar


0,83

diller


[TR]

altyazilar


Yok [Eklenebilir]

Video Format: Avi


Audio Video Interleave (.AVI)

Video Detay


MPEG-4, 1212 Kbps, 0,75GB

imdb puanı


5,9 / 10,0 / 120

süre


80 dakika

Ses Kodek: MP3


MPEG-1 Audio Layer III (MP3)

Ses Detay


128 Kbps, 2 Kanal, 79,8Mb

Editör Puanı


5,5

Genislik Yukseklik


720-300

sürüm


h263 | Brrip-Xvid


Film Detayları

Uzay diyarda güçlü bir kral, Snow Queen'in kötü sihirleri yüzünden neredeyse ailesini kaybediyordu. Kral, dünyadaki tüm sihirleri engellemenin bir yolunu buluyor; sihir güçlerine sahip olanların hepsini Mirrorlands'a hapsetmek. Onu durdurabilecek ve masalımızı dünyamızda tutabilecek tek kişi Gerda'dır en büyük gücü sihir değil, nezaket ve dostluğa olan inancıdır. Gerda'nın yeni maceralarında, troller, korsanlar ve hatta Kar Kraliçesi'nin yardımını alcaktır.

Karlar Kraliçesi 4: Sihirli Ayna (2019) Filmi İmdb'den 120 kişi tarafından oylandı ve 5,9 puan aldı. Bu film için editör puanı 5,5 olarak belirlendi. İyi Seyirler!


Teknik Detaylar

Kod:
General
Complete name                            : The.Snow.Queen.4.Mirror.Lands.2019.HDRip.XViD.TR.Filmbol.avi
Format                                   : AVI
Format/Info                              : Audio Video Interleave
File size                                : 844 MiB
Duration                                 : 1h 27mn
Overall bit rate                         : 1 353 Kbps

Video
ID                                       : 0
Format                                   : MPEG-4 Visual
Format profile                           : Advanced Simple@L5
Format settings, BVOP                    : 1
Format settings, QPel                    : No
Format settings, GMC                     : No warppoints
Format settings, Matrix                  : Default (MPEG)
Codec ID                                 : XVID
Codec ID/Hint                            : XviD
Duration                                 : 1h 27mn
Bit rate                                 : 1 212 Kbps
Width                                    : 720 pixels
Height                                   : 300 pixels
Display aspect ratio                     : 2.40:1
Frame rate                               : 24.000 fps
Color space                              : YUV
Chroma subsampling                       : 4:2:0
Bit depth                                : 8 bits
Scan type                                : Progressive
Compression mode                         : Lossy
Bits/(Pixel*Frame)                       : 0.234
Stream size                              : 756 MiB (90%)
Writing library                          : XviD 64

Audio
ID                                       : 1
Format                                   : MPEG Audio
Format version                           : Version 1
Format profile                           : Layer 3
Mode                                     : Joint stereo
Mode extension                           : MS Stereo
Codec ID                                 : 55
Codec ID/Hint                            : MP3
Duration                                 : 1h 27mn
Bit rate mode                            : Constant
Bit rate                                 : 128 Kbps
Channel(s)                               : 2 channels
Sampling rate                            : 48.0 KHz
Compression mode                         : Lossy
Stream size                              : 79.8 MiB (9%)
Alignment                                : Aligned on interleaves
Interleave, duration                     : 24 ms (0.58 video frame)
Writing library                          : LAME3.99.5



Film Detayları


Karlar kralicesi 4 indir

Karlar kralicesi 4 indir

Karlar kralicesi 4 indir

Karlar kralicesi 4 indir

Karlar kralicesi 4 indir



Film Fragmanı


Film Detayları

Brrip İndir


Uptobox ile indir

LetsUpload ile indir

CloudRu ile indir

j4dm

Mega Upload ile indir

 
Cevapla
  


Konu ile Alakalı Benzer Konular
Konular Yazar Yorumlar Okunma Son Yorum
Filmin Yayınlanma Tarihi: 2012 Buz Devri 4: Kıtalar Ayrılıyor (Ice Age: Continental Drift) Türkçe Dublaj BRRip XviD BroserBros 0 56 24-02-2020, Saat: 21:53
Son Yorum: BroserBros
Filmin Yayınlanma Tarihi: 2019 Addams Ailesi (The Addams Family) Türkçe Dublaj BRRip XviD indir BroserBros 0 66 22-02-2020, Saat: 22:58
Son Yorum: BroserBros
Filmin Yayınlanma Tarihi: 2009 Buz Devri 3 (Ice Age: Dawn of the Dinosaurs) Türkçe Dublaj BRRip XviD İndir BroserBros 0 50 21-02-2020, Saat: 22:43
Son Yorum: BroserBros
Filmin Yayınlanma Tarihi: 2006 Buz Devri 2 (Erime Başlıyor (Ice Age: The Meltdown)) Türkçe Dublaj BRRip XviD indir BroserBros 0 31 21-02-2020, Saat: 22:31
Son Yorum: BroserBros
Filmin Yayınlanma Tarihi: 2016 Kung Fu Panda 3 Türkçe Dublaj Brrip-Xvid İndir BroserBros 2 3,065 19-02-2020, Saat: 01:42
Son Yorum: haytoki

Hızlı Menü:


Browsing: 1 Ziyaretçi