Hoşgeldin, Ziyaretçi: Giriş Yap Üye Ol


stats
Adblock'u kapattıysanız tıklayın.
Hoşgeldiniz!
Filmbol'u tercih ettiğiniz için teşekkürler, ancak ablock kullanarak devam edemezsiniz.
Merak etmeyin. Heryerden ardı ardına çıkan reklamlar görmeyeceksiniz :)

Sadece site içi 1 reklam göreceksin ve bu site gezintini etkilemeyecek.
Konuyu Oyla:
  • Derecelendirme: 0/5 - 0 oy
  • 1
  • 2
  • 3
  • 4
  • 5
Karlar Kraliçesi 4: Sihirli Ayna (Snezhnaya koroleva) Türkçe Dublaj Brrip Xvid İndir
#1
Filmin Yayınlanma Tarihi: 2019 

indirme türü


Bulut + Premium

vizyon tarihi


22 Şubat 2019

Boyutlar


0,83

diller


[TR]

altyazilar


Yok [Eklenebilir]

Video Format: Avi


Audio Video Interleave (.AVI)

Video Detay


MPEG-4, 1212 Kbps, 0,75GB

imdb puanı


5,9 / 10,0 / 120

süre


80 dakika

Ses Kodek: MP3


MPEG-1 Audio Layer III (MP3)

Ses Detay


128 Kbps, 2 Kanal, 79,8Mb

Editör Puanı


5,5

Genislik Yukseklik


720-300

sürüm


h263 | Brrip-Xvid



Film Detayları

Uzay diyarda güçlü bir kral, Snow Queen'in kötü sihirleri yüzünden neredeyse ailesini kaybediyordu. Kral, dünyadaki tüm sihirleri engellemenin bir yolunu buluyor; sihir güçlerine sahip olanların hepsini Mirrorlands'a hapsetmek. Onu durdurabilecek ve masalımızı dünyamızda tutabilecek tek kişi Gerda'dır en büyük gücü sihir değil, nezaket ve dostluğa olan inancıdır. Gerda'nın yeni maceralarında, troller, korsanlar ve hatta Kar Kraliçesi'nin yardımını alcaktır.

Karlar Kraliçesi 4: Sihirli Ayna (2019) Filmi İmdb'den 120 kişi tarafından oylandı ve 5,9 puan aldı. Bu film için editör puanı 5,5 olarak belirlendi. İyi Seyirler!


Teknik Detaylar


Kod:
General
Complete name                            : The.Snow.Queen.4.Mirror.Lands.2019.HDRip.XViD.TR.Filmbol.avi
Format                                   : AVI
Format/Info                              : Audio Video Interleave
File size                                : 844 MiB
Duration                                 : 1h 27mn
Overall bit rate                         : 1 353 Kbps

Video
ID                                       : 0
Format                                   : MPEG-4 Visual
Format profile                           : Advanced Simple@L5
Format settings, BVOP                    : 1
Format settings, QPel                    : No
Format settings, GMC                     : No warppoints
Format settings, Matrix                  : Default (MPEG)
Codec ID                                 : XVID
Codec ID/Hint                            : XviD
Duration                                 : 1h 27mn
Bit rate                                 : 1 212 Kbps
Width                                    : 720 pixels
Height                                   : 300 pixels
Display aspect ratio                     : 2.40:1
Frame rate                               : 24.000 fps
Color space                              : YUV
Chroma subsampling                       : 4:2:0
Bit depth                                : 8 bits
Scan type                                : Progressive
Compression mode                         : Lossy
Bits/(Pixel*Frame)                       : 0.234
Stream size                              : 756 MiB (90%)
Writing library                          : XviD 64

Audio
ID                                       : 1
Format                                   : MPEG Audio
Format version                           : Version 1
Format profile                           : Layer 3
Mode                                     : Joint stereo
Mode extension                           : MS Stereo
Codec ID                                 : 55
Codec ID/Hint                            : MP3
Duration                                 : 1h 27mn
Bit rate mode                            : Constant
Bit rate                                 : 128 Kbps
Channel(s)                               : 2 channels
Sampling rate                            : 48.0 KHz
Compression mode                         : Lossy
Stream size                              : 79.8 MiB (9%)
Alignment                                : Aligned on interleaves
Interleave, duration                     : 24 ms (0.58 video frame)
Writing library                          : LAME3.99.5



Film Detayları


Karlar kralicesi 4 indir

Karlar kralicesi 4 indir

Karlar kralicesi 4 indir

Karlar kralicesi 4 indir

Karlar kralicesi 4 indir



Film Fragmanı


Film Detayları

Brrip İndir


Turbobit İle İndir

Uptobox ile indir

LetsUpload ile indir

Cloud Ru ile indir

Dosya Upload ile indir

Filmbol'da aşağıdaki linkler sadece üyelere sunulur. Ayrıca bu linklerde link kısaltma servisleri kullanılmaz, linke tek tık ile reklamsız erişirsiniz. Konu'ya yorum yapın ve sayfayı yenileyin. Reklamsız linkler (en az 3 en fazla 5 link) açılmış olacaktır. Not: Filmbol'a üye olmak tamamen ücretsizdir, en az 3 link kuralı 01.07.2019 tarihinden sonraki paylaşımlar için geçerlidir. Ancak çoğu film için en az bir premium link her zaman bulunur.

Mega

Dosyaco

Dosyaupload

Mediafire

Google Drive
 
Cevapla
  


Konu ile Alakalı Benzer Konular
Konular Yazar Yorumlar Okunma Son Yorum
Filmin Yayınlanma Tarihi: 2018 Örümcek Adam: Örümcek Evreninde (Spider-Man) Türkçe Dublaj Brrip Xvid İndir BroserBros 4 150 14-09-2019, Saat: 22:55
Son Yorum: edizshady
Filmin Yayınlanma Tarihi: 2019 Ralph ve İnternet (Ralph Breaks the Internet) Türkçe Dublaj Brrip Xvid İndir BroserBros 1 65 11-09-2019, Saat: 01:47
Son Yorum: Droid Artworx
Filmin Yayınlanma Tarihi: 2019 Mucizeler Parkı (Wonder Park) Türkçe Dublaj Brrip Xvid İndir BroserBros 0 83 08-07-2019, Saat: 19:35
Son Yorum: BroserBros
Filmin Yayınlanma Tarihi: 2017 Ayı Paddington 2 (Paddington 2) Türkçe Dublaj Brrip-Xvid İndir BroserBros 0 644 23-08-2018, Saat: 20:16
Son Yorum: BroserBros
Filmin Yayınlanma Tarihi: 2018 Taş Devri Firarda (Early Man) Türkçe Dublaj Brrip-Xvid İndir BroserBros 0 714 02-08-2018, Saat: 16:14
Son Yorum: BroserBros

Hızlı Menü:


Şu anda bu konuyu okuyanlar: 1 Ziyaretçi