Filmbol Forum Film İndir BRRip XviD v Karınca-Adam ve Eşek Arısı (Ant-Man and Wasp) Türkçe Dublaj Brrip Xvid İndir
Filmbol'da moderatör olmak ister misiniz? Bizimle iletişime geçmek için tıklayın!
Karınca-Adam ve Eşek Arısı (Ant-Man and Wasp) Türkçe Dublaj Brrip Xvid İndir
BroserBros
Karınca-Adam ve Eşek Arısı (Ant-Man and Wasp) Türkçe Dublaj Brrip Xvid İndir
2
585
  • Derecelendirme: 0/5 - 0 oy
  • 1
  • 2
  • 3
  • 4
  • 5
Konuyu Okuyanlar:1 Ziyaretçi
Şuan Online!
Filmin Yayınlanma Tarihi: 2018 
Şuan Online!
BroserBros Kurucu Admin
*******
Admin

indirme türü


Bulut + Premium

Vizyon Tarihi


06 Haziran 2018

Boyutlar


1,18

diller


[TR]

altyazilar


Yok [Eklenebilir]

Video Format: Avi


Audio Video Interleave (.AVI)

Video Detay


MPEG-4, 1286Kbps, 1,06GB

imdb puanı


7,1 / 10,0 / 270,000

süre


118 dakika

Ses Kodek: MP3


MPEG-1 Audio Layer III (MP3)

Ses Detay


128 Kbps, 2 Kanal, 108Mb

Editör Puanı


7,5

Genislik Yukseklik


720-304

sürüm


h263 | Brrip Xvid




Karınca-Adam ve Eşek Arısı


Film Detayları

Ant-Man ve Wasp, hem iyi bir baba hem de süper kahraman olan Scott Lang’ın geçmişindeki sırları çözmek için Wasp ile işbirliği yaparak verdiği mücadeleyi konu ediyor. Scott Lang, Yenilmezler'in savaşında yer almanın sonuçları ile hem bir süper kahraman, hem de bir baba olarak boğuşmaktadır. Hayatının iki yanını da dengede tutmaya çalışan Scott hem iyi bir baba, hem de sorumluluk sahibi kahraman Ant-Man olmak için çabalarken, Hope van Dyne ve Dr. Hank Pym acil bir görevle kapısını çalarlar. Scott bir kez daha kostümünü giymeli ve Wasp ile işbirliği yaparak geçmişindeki sırları çözmek için işe koyulmalıdır.

Karınca-Adam ve Eşek Arısı (Ant-Man and Wasp) Filmi Imdb'den 270,000 kişi tarafından oylandı ve 7,1  puan aldı. Bu film için editör puanı 7,5 olarak belirlendi. İyi Seyirler!


Teknik Detaylar


Kod :
General
Complete name                            : Karınca.Adam.ve.Eşek.Arısı.2018.HDRip.XviD.TR.Filmbol.avi
Format                                   : AVI
Format/Info                              : Audio Video Interleave
File size                                : 1.18 GiB
Duration                                 : 1h 58mn
Overall bit rate                         : 1 427 Kbps

Video
ID                                       : 0
Format                                   : MPEG-4 Visual
Format profile                           : Advanced Simple@L5
Format settings, BVOP                    : 2
Format settings, QPel                    : No
Format settings, GMC                     : No warppoints
Format settings, Matrix                  : Default (H.263)
Codec ID                                 : XVID
Codec ID/Hint                            : XviD
Duration                                 : 1h 58mn
Bit rate                                 : 1 286 Kbps
Width                                    : 720 pixels
Height                                   : 304 pixels
Display aspect ratio                     : 2.35:1
Frame rate                               : 23.976 (23976/1000) fps
Color space                              : YUV
Chroma subsampling                       : 4:2:0
Bit depth                                : 8 bits
Scan type                                : Progressive
Compression mode                         : Lossy
Bits/(Pixel*Frame)                       : 0.245
Stream size                              : 1.06 GiB (90%)
Writing library                          : XviD 67

Audio
ID                                       : 1
Format                                   : MPEG Audio
Format version                           : Version 1
Format profile                           : Layer 3
Codec ID                                 : 55
Codec ID/Hint                            : MP3
Duration                                 : 1h 58mn
Bit rate mode                            : Constant
Bit rate                                 : 128 Kbps
Channel(s)                               : 2 channels
Sampling rate                            : 48.0 KHz
Compression mode                         : Lossy
Stream size                              : 108 MiB (9%)
Alignment                                : Aligned on interleaves
Interleave, duration                     : 24 ms (0.58 video frame)
Writing library                          : LAME

Film Detayları


Karınca-Adam ve Eşek Arısı

Karınca-Adam ve Eşek Arısı

Karınca-Adam ve Eşek Arısı


Film Fragmanı


Film Detayları

Brrip İndir



Uptobox ile indir

1Fichier ile indir

1Fichier'den İndiremiyor musun? Tıklayın!


LetsUpload ile indir

Mega ile indir

MediaFire ile indir

Şuan Offine!
Şuan Offine!
sectechno Süper Üye
***
Super Üye

  • Konular9
  • Mesajlar70
  • Rep puanı 0
Teşekkürler Admin.Rep puanını ilk olarak ben veriyorum.
Emeğine sağlık,kolay gelsin.İyi çalışmalar.
Şuan Offine!
Şuan Offine!
Ap0calypse Süper Üye
***
Super Üye

  • Konular0
  • Mesajlar39
  • Rep puanı 0
eline sağlık


Konu ile Alakalı Benzer Konular
Konular Yazar Yorumlar Okunma Son Yorum
Filmin Yayınlanma Tarihi: 2020
Zengo (Zengo) - 2020 - TR - BRRip XviD BroserBros 0 21 , Saat: 14:08
Son Yorum: BroserBros
Filmin Yayınlanma Tarihi: 2019
Yalan Dolan (Yalan Dolan) - 2019 - TR - BRRip XviD BroserBros 0 20 , Saat: 13:57
Son Yorum: BroserBros
Filmin Yayınlanma Tarihi: 2019
Hatıra (The Souvenir) - 2019 - TR - BRRip XviD BroserBros 0 20 , Saat: 13:04
Son Yorum: BroserBros
Filmin Yayınlanma Tarihi: 2020
My Spy (My Spy) - 2020 - TR - BRRip XviD BroserBros 0 7 , Saat: 12:53
Son Yorum: BroserBros
Filmin Yayınlanma Tarihi: 2019
Luce (Luce) - 2019 - TR - BRRip XviD BroserBros 0 31 28-11-2020, Saat: 17:58
Son Yorum: BroserBros

Hızlı Menü: