Filmbol Forum Film İndir BRRip XviD v Karınca-Adam ve Eşek Arısı (Ant-Man and Wasp) Türkçe Dublaj Brrip Xvid İndir
Mega linklerinin şikayet edilmemesi için global erişime kapatıp sadece yorum yapanlara açıyoruz. Bu linkleri gizleme işlemini mecburen yapıyoruz ve yorum yapmanızın siteye değil size faydası vardır. Teşekürler yazmayı çok görüp, Random/Spam mesajlar atarak Mega linklerini açmaya çalışan kullanıcılara önce süresiz ban, devam ederse IP ban atacağız.
Filmbol'da moderatör olmak ister misiniz? Bizimle iletişime geçmek için tıklayın!
Karınca-Adam ve Eşek Arısı (Ant-Man and Wasp) Türkçe Dublaj Brrip Xvid İndir
BroserBros
Karınca-Adam ve Eşek Arısı (Ant-Man and Wasp) Türkçe Dublaj Brrip Xvid İndir
1
663
  • Derecelendirme: 0/5 - 0 oy
  • 1
  • 2
  • 3
  • 4
  • 5
Konuyu Okuyanlar:1 Ziyaretçi
Şuan Online!
Filmin Yayınlanma Tarihi: 2018 
WWW
Şuan Online!
BroserBros Kurucu Admin
*******
Admin




diller


[TR]

altyazilar


Yok [Eklenebilir]

Video Format: Avi


Audio Video Interleave (.AVI)

Video Detay


MPEG-4, 1286Kbps, 1,06GB


Ses Kodek: MP3


MPEG-1 Audio Layer III (MP3)

Ses Detay


128 Kbps, 2 Kanal, 108Mb


Genislik Yukseklik


720-304





Karınca-Adam ve Eşek Arısı


Film Detayları

Ant-Man ve Wasp, hem iyi bir baba hem de süper kahraman olan Scott Lang’ın geçmişindeki sırları çözmek için Wasp ile işbirliği yaparak verdiği mücadeleyi konu ediyor. Scott Lang, Yenilmezler'in savaşında yer almanın sonuçları ile hem bir süper kahraman, hem de bir baba olarak boğuşmaktadır. Hayatının iki yanını da dengede tutmaya çalışan Scott hem iyi bir baba, hem de sorumluluk sahibi kahraman Ant-Man olmak için çabalarken, Hope van Dyne ve Dr. Hank Pym acil bir görevle kapısını çalarlar. Scott bir kez daha kostümünü giymeli ve Wasp ile işbirliği yaparak geçmişindeki sırları çözmek için işe koyulmalıdır.

Karınca-Adam ve Eşek Arısı (Ant-Man and Wasp) Filmi Imdb'den 270,000 kişi tarafından oylandı ve 7,1  puan aldı. Bu film için editör puanı 7,5 olarak belirlendi. İyi Seyirler!


Teknik Detaylar


Kod :
General
Complete name                            : Karınca.Adam.ve.Eşek.Arısı.2018.HDRip.XviD.TR.Filmbol.avi
Format                                   : AVI
Format/Info                              : Audio Video Interleave
File size                                : 1.18 GiB
Duration                                 : 1h 58mn
Overall bit rate                         : 1 427 Kbps

Video
ID                                       : 0
Format                                   : MPEG-4 Visual
Format profile                           : Advanced [email protected]
Format settings, BVOP                    : 2
Format settings, QPel                    : No
Format settings, GMC                     : No warppoints
Format settings, Matrix                  : Default (H.263)
Codec ID                                 : XVID
Codec ID/Hint                            : XviD
Duration                                 : 1h 58mn
Bit rate                                 : 1 286 Kbps
Width                                    : 720 pixels
Height                                   : 304 pixels
Display aspect ratio                     : 2.35:1
Frame rate                               : 23.976 (23976/1000) fps
Color space                              : YUV
Chroma subsampling                       : 4:2:0
Bit depth                                : 8 bits
Scan type                                : Progressive
Compression mode                         : Lossy
Bits/(Pixel*Frame)                       : 0.245
Stream size                              : 1.06 GiB (90%)
Writing library                          : XviD 67

Audio
ID                                       : 1
Format                                   : MPEG Audio
Format version                           : Version 1
Format profile                           : Layer 3
Codec ID                                 : 55
Codec ID/Hint                            : MP3
Duration                                 : 1h 58mn
Bit rate mode                            : Constant
Bit rate                                 : 128 Kbps
Channel(s)                               : 2 channels
Sampling rate                            : 48.0 KHz
Compression mode                         : Lossy
Stream size                              : 108 MiB (9%)
Alignment                                : Aligned on interleaves
Interleave, duration                     : 24 ms (0.58 video frame)
Writing library                          : LAME

Film Detayları


Karınca-Adam ve Eşek Arısı

Karınca-Adam ve Eşek Arısı

Karınca-Adam ve Eşek Arısı


Film Fragmanı


Film Detayları

Brrip İndir



Uptobox ile indir

1Fichier ile indir

1Fichier'den İndiremiyor musun? Tıklayın!


LetsUpload ile indir

Mega linki şuan da gizli. Kullanıma açmak için konuya yorum yapın ve ardından sayfayı yenileyin.

Mega


MediaFire ile indir

Şuan Offine!
Şuan Offine!
Ap0calypse Süper Üye
***
Super Üye

  • Konular0
  • Mesajlar39
  • Rep puanı 0
eline sağlık


Konu ile Alakalı Benzer Konular
Konular Yazar Yorumlar Okunma Son Yorum
Filmin Yayınlanma Tarihi: 2017
The Babysitter (The Babysitte) - 2017 - TR - BRRip XviD | tt4225622 TheSteeL 0 18 3 saat önce
Son Yorum: TheSteeL
Filmin Yayınlanma Tarihi: 2020
Bebek Bakıcısı: Katil Kraliçe (The Babysitter: Killer Queen) - 2020 - TR - BRRip XviD | tt11024272 TheSteeL 0 17 4 saat önce
Son Yorum: TheSteeL
Filmin Yayınlanma Tarihi: 2019
Charlie'nin Melekleri (Charlie's Angels) Türkçe Dublaj BRRip XviD indir BroserBros 2 261 6 saat önce
Son Yorum: sectechno
Filmin Yayınlanma Tarihi: 2019
Captain Marvel Türkçe Dublaj Brrip-Xvid İndir BroserBros 5 633 8 saat önce
Son Yorum: Strange
Filmin Yayınlanma Tarihi: 2000
Gladyatör (Gladiator) - 2000 - TR - BRRip XviD | tt0172495 BroserBros 2 220 8 saat önce
Son Yorum: Furkan61

Hızlı Menü: