Filmbol Forum Film İndir 720P v Karınca-Adam ve Eşek Arısı (Ant-Man and Wasp) Türkçe Dublaj BLURAY 720P İndir
Filmbol'da moderatör olmak ister misiniz? Bizimle iletişime geçmek için tıklayın!
Karınca-Adam ve Eşek Arısı (Ant-Man and Wasp) Türkçe Dublaj BLURAY 720P İndir
BroserBros
Karınca-Adam ve Eşek Arısı (Ant-Man and Wasp) Türkçe Dublaj BLURAY 720P İndir
3
658
  • Derecelendirme: 0/5 - 0 oy
  • 1
  • 2
  • 3
  • 4
  • 5
Konuyu Okuyanlar:1 Ziyaretçi
Şuan Online!
Filmin Yayınlanma Tarihi: 2018 
Şuan Online!
BroserBros Kurucu Admin
*******
Admin

indirme türü


Bulut + Premium

Vizyon Tarihi


06 Haziran 2018

Boyutlar


1,18

diller


[TR]

altyazilar


KISIM [Eklenebilir]

Video Format: Mkv


Matroska (.MKV)

Video Detay


MPEG-4, 1050Kbps, 0,88GB

imdb puanı


7,1 / 10,0 / 270,000

süre


118 dakika

Ses Kodek: AC3


Audio Coding 3 (AC3)

Ses Detay


384 Kbps, 6 Kanal, 324Mb

Editör Puanı


7,5

Genislik Yukseklik


1280-534

sürüm


x264 | 720P




Karınca-Adam ve Eşek Arısı


Film Detayları

Ant-Man ve Wasp, hem iyi bir baba hem de süper kahraman olan Scott Lang’ın geçmişindeki sırları çözmek için Wasp ile işbirliği yaparak verdiği mücadeleyi konu ediyor. Scott Lang, Yenilmezler'in savaşında yer almanın sonuçları ile hem bir süper kahraman, hem de bir baba olarak boğuşmaktadır. Hayatının iki yanını da dengede tutmaya çalışan Scott hem iyi bir baba, hem de sorumluluk sahibi kahraman Ant-Man olmak için çabalarken, Hope van Dyne ve Dr. Hank Pym acil bir görevle kapısını çalarlar. Scott bir kez daha kostümünü giymeli ve Wasp ile işbirliği yaparak geçmişindeki sırları çözmek için işe koyulmalıdır.

Karınca-Adam ve Eşek Arısı (Ant-Man and Wasp) Filmi Imdb'den 270,000 kişi tarafından oylandı ve 7,1  puan aldı. Bu film için editör puanı 7,5 olarak belirlendi. İyi Seyirler!


Teknik Detaylar


Kod :
General
Complete name                            : Karınca.Adam.ve.Eşek.Arısı.2018.m720p.BLURAY.x264.TR.Filmbol.mkv
Format                                   : Matroska
Format version                           : Version 4 / Version 2
File size                                : 1.18 GiB
Duration                                 : 1h 58mn
Overall bit rate                         : 1 435 Kbps
Movie name                               : Karınca Adam ve Eşek Arısı (2018) - Filmbol.org
Encoded date                             : UTC 2019-12-05 21:26:23
Writing application                      : mkvmerge v35.0.0 ('All The Love In The World') 64-bit
Writing library                          : libebml v1.3.9 + libmatroska v1.5.2

Video
ID                                       : 1
Format                                   : AVC
Format/Info                              : Advanced Video Codec
Format profile                           : High@L4.1
Format settings, CABAC                   : Yes
Format settings, ReFrames                : 4 frames
Codec ID                                 : V_MPEG4/ISO/AVC
Duration                                 : 1h 58mn
Bit rate                                 : 1 050 Kbps
Width                                    : 1 280 pixels
Height                                   : 534 pixels
Display aspect ratio                     : 2.40:1
Original display aspect ratio            : 2.40:1
Frame rate mode                          : Constant
Frame rate                               : 23.976 (24000/1001) fps
Color space                              : YUV
Chroma subsampling                       : 4:2:0
Bit depth                                : 8 bits
Scan type                                : Progressive
Bits/(Pixel*Frame)                       : 0.064
Stream size                              : 887 MiB (73%)
Title                                    : 720P - Filmbol.org
Writing library                          : x264 core 155
Default                                  : Yes
Forced                                   : No

Audio
ID                                       : 2
Format                                   : AC-3
Format/Info                              : Audio Coding 3
Mode extension                           : CM (complete main)
Format settings, Endianness              : Big
Codec ID                                 : A_AC3
Duration                                 : 1h 58mn
Bit rate mode                            : Constant
Bit rate                                 : 384 Kbps
Channel(s)                               : 6 channels
Channel positions                        : Front: L C R, Side: L R, LFE
Sampling rate                            : 48.0 KHz
Frame rate                               : 31.250 fps (1536 spf)
Compression mode                         : Lossy
Stream size                              : 324 MiB (27%)
Title                                    : Türkçe - Filmbol.org
Language                                 : Turkish
Default                                  : Yes
Forced                                   : No

Text
ID                                       : 3
Format                                   : UTF-8
Codec ID                                 : S_TEXT/UTF8
Codec ID/Info                            : UTF-8 Plain Text
Duration                                 : 1h 53mn
Bit rate                                 : 0 bps
Count of elements                        : 4
Stream size                              : 57.0 Bytes (0%)
Title                                    : KISIM
Default                                  : Yes
Forced                                   : No

Film Detayları


Karınca-Adam ve Eşek Arısı

Karınca-Adam ve Eşek Arısı

Karınca-Adam ve Eşek Arısı


Film Fragmanı


Film Detayları

Mini 720P İndir



Uptobox ile indir

1Fichier ile indir

1Fichier'den İndiremiyor musun? Tıklayın!


LetsUpload ile indir

Mega ile indir

MediaFire ile indir

Şuan Offine!
Şuan Offine!
manyaksın Yeni Üye
*
Üye

  • Konular0
  • Mesajlar5
  • Rep puanı 0
tsklr
Şuan Offine!
Şuan Offine!
a7yr Uzman Üye
**
Uzman Üye

  • Konular0
  • Mesajlar9
  • Rep puanı 0
Tskrlr
Şuan Offine!
Şuan Offine!
sipçük ismail Yeni Üye
*
Üye

  • Konular0
  • Mesajlar2
  • Rep puanı 0
sa kmkmömömömööm


Konu ile Alakalı Benzer Konular
Konular Yazar Yorumlar Okunma Son Yorum
Filmin Yayınlanma Tarihi: 2020
Zengo (Zengo) - 2020 - TR+ORG - 720P BroserBros 0 20 , Saat: 14:08
Son Yorum: BroserBros
Filmin Yayınlanma Tarihi: 2019
Hatıra (The Souvenir) - 2019 - TR+ORG - 720P BroserBros 0 20 , Saat: 13:04
Son Yorum: BroserBros
Filmin Yayınlanma Tarihi: 2020
My Spy (My Spy) - 2020 - TR+ORG - 720P BroserBros 0 22 , Saat: 12:54
Son Yorum: BroserBros
Filmin Yayınlanma Tarihi: 2019
Luce (Luce) - 2019 - TR+ORG - 720P BroserBros 0 28 28-11-2020, Saat: 17:58
Son Yorum: BroserBros
Filmin Yayınlanma Tarihi: 2020
Aşka İnan (I Still Believe) - 2020 - TR+ORG - 720P BroserBros 0 27 28-11-2020, Saat: 16:58
Son Yorum: BroserBros

Hızlı Menü: