Filmbol Forum Film İndir FHD - FULL HD v Kardaki Küller (Ashes in the Snow) - 2018 - TR+ORG - FHD
Moderatör Alımları Başladı! Başvuru yapmak için tıklayın.
Filmbol Premium'da %50'e varan indirim fırsatı!
Kardaki Küller (Ashes in the Snow) - 2018 - TR+ORG - FHD
BroserBros
Kardaki Küller (Ashes in the Snow) - 2018 - TR+ORG - FHD
0
95
  • Derecelendirme: 0/5 - 0 oy
  • 1
  • 2
  • 3
  • 4
  • 5
Konuyu Okuyanlar:1 Ziyaretçi
Şuan Offine!
Filmin Yayınlanma Tarihi: 2018 
Şuan Offine!
BroserBros Kurucu Admin
*******
Admin

Vizyon Tarihi


12 Ekim 2018

imdb puanı


6,6 / 5,000

süre


98 dakika

Editör Puanı


6,5 / 10

Video Format: Mkv


Matroska (.MKV)

Ses Kodek: AC3


Audio Coding 3 (AC3)

sürüm


x264 | FULL HD | BluRay

Boyutlar


1,86 GB



 Kardaki Küller



Lina sanata meraklı, ailesi ile iyi geçinen 16 yaşında genç bir kızdır. Sanata merakı azımsanamayacak derecede iyidir ve bir gün Lina ve ailesi haksız yere memleketlerinden Sibiryaya sürdürülürler. Lina memleket özlemi ile yanıp tutuşurken, sanatına ara vermez ve harikalar yaratacaktır...

Kardaki Küller (2018) (Ashes in the Snow) Filmi Imdb'den 5,000 kişi tarafından oylandı ve 6,6 puan aldı. Bu film için editör puanı 6,5 olarak belirlendi. İyi Seyirler!

Teknik Detaylar

Kod :
General
Unique ID                                : 59941845776909878971667530264738958477 (0x2D18612B85E76DC2D4BB7E55D0A28C8D)
Complete name                            : /root/Desktop/1/Ashes.in.the.Snow.2018.1080p.WEB-DL.x264.TR.ENG.Filmbol.mkv
Format                                  : Matroska
Format version                          : Version 4 / Version 2
File size                                : 1.86 GiB
Duration                                : 1h 41mn
Overall bit rate                        : 2 631 Kbps
Movie name                              : Ashes in the Snow - 2018 | Filmbol.org
Encoded date                            : UTC 2020-05-17 15:30:27
Writing application                      : mkvmerge v8.8.0 ('Wind at my back') 64bit
Writing library                          : libebml v1.3.3 + libmatroska v1.4.4

Video
ID                                      : 1
Format                                  : AVC
Format/Info                              : Advanced Video Codec
Format profile                          : Main@L4
Format settings, CABAC                  : Yes
Format settings, ReFrames                : 2 frames
Codec ID                                : V_MPEG4/ISO/AVC
Duration                                : 1h 41mn
Bit rate                                : 2 245 Kbps
Width                                    : 1 920 pixels
Height                                  : 1 032 pixels
Display aspect ratio                    : 1.85:1
Frame rate mode                          : Constant
Frame rate                              : 24.000 fps
Color space                              : YUV
Chroma subsampling                      : 4:2:0
Bit depth                                : 8 bits
Scan type                                : Progressive
Bits/(Pixel*Frame)                      : 0.047
Stream size                              : 1.59 GiB (85%)
Title                                    : Filmbol.org
Language                                : English
Default                                  : Yes
Forced                                  : No

Audio #1
ID                                      : 2
Format                                  : AC-3
Format/Info                              : Audio Coding 3
Mode extension                          : CM (complete main)
Format settings, Endianness              : Big
Codec ID                                : A_AC3
Duration                                : 1h 41mn
Bit rate mode                            : Constant
Bit rate                                : 192 Kbps
Channel(s)                              : 2 channels
Channel positions                        : Front: L R
Sampling rate                            : 48.0 KHz
Frame rate                              : 31.250 fps (1536 spf)
Compression mode                        : Lossy
Stream size                              : 139 MiB (7%)
Title                                    : Filmbol.org
Language                                : Turkish
Default                                  : Yes
Forced                                  : No

Audio #2
ID                                      : 3
Format                                  : AC-3
Format/Info                              : Audio Coding 3
Mode extension                          : CM (complete main)
Format settings, Endianness              : Big
Codec ID                                : A_AC3
Duration                                : 1h 41mn
Bit rate mode                            : Constant
Bit rate                                : 192 Kbps
Channel(s)                              : 2 channels
Channel positions                        : Front: L R
Sampling rate                            : 48.0 KHz
Frame rate                              : 31.250 fps (1536 spf)
Compression mode                        : Lossy
Stream size                              : 139 MiB (7%)
Title                                    : Filmbol.org
Language                                : English
Default                                  : No
Forced                                  : No

Text
ID                                      : 4
Format                                  : UTF-8
Codec ID                                : S_TEXT/UTF8
Codec ID/Info                            : UTF-8 Plain Text
Duration                                : 1h 34mn
Bit rate                                : 29 bps
Count of elements                        : 614
Stream size                              : 20.6 KiB (0%)
Title                                    : Filmbol.org
Language                                : Turkish
Default                                  : No
Forced                                  : No

Film Detayları


 Kardaki Küller

 Kardaki Küller

 Kardaki Küller


Film Fragmanı


Film Detayları

Uptobox ile indir

1Fichier ile indir

1Fichier'den İndiremiyor musun? Tıklayın!


Mega ile indir

Bunun için üzgünüz ancak, bu linke sadece premium üyeler erişebilir.

Filmbol Cloud



Konu ile Alakalı Benzer Konular
Konular Yazar Yorumlar Okunma Son Yorum
Filmin Yayınlanma Tarihi: 2018
Fast Color: Gücünü Serbest Bırak (Fast Color) - 2018 - TR+ORG - FHD - x264 BroserBros 0 313 03-10-2020, Saat: 16:47
Son Yorum: BroserBros
Filmin Yayınlanma Tarihi: 2018
Gözbebeğim (Pupille) - 2018 - TR+ORG - FHD - x264 BroserBros 0 370 18-09-2020, Saat: 13:03
Son Yorum: BroserBros
Filmin Yayınlanma Tarihi: 2018
Ölüm Düğümü (The Clovehitch Killer) - 2018 - TR+ORG - FHD - x264 BroserBros 0 158 07-08-2020, Saat: 19:19
Son Yorum: BroserBros
Filmin Yayınlanma Tarihi: 2018
Gölge Savaşçı (Shadow - Ying) - 2018 - TR+ORG - FHD - x264 BroserBros 0 101 26-07-2020, Saat: 12:57
Son Yorum: BroserBros
Filmin Yayınlanma Tarihi: 2018
Göç Mevsimi (Pájaros de verano) - 2018 - TR+ORG - FHD - x264 BroserBros 0 94 21-07-2020, Saat: 20:03
Son Yorum: BroserBros

Hızlı Menü: