Hoşgeldin, Ziyaretçi: Giriş Yap Üye Ol


Konuyu Oyla:
  • Derecelendirme: 3/5 - 1 oy
  • 1
  • 2
  • 3
  • 4
  • 5
Title: Karayip Korsanları :5 (Pirates Of Caribbean :5) Türkçe Dublaj m720P İndir
Gösterim Stili
#1
Filmin Yayınlanma Tarihi: 2017 

indirme türü


Bulut + Premium

vizyon tarihi


26 Mayıs 2017

Boyutlar


1,28

diller


[TR]

altyazilar


Yok [Eklenebilir]

Video Format: Mkv


Matroska (.MKV)

Video Detay


MPEG-4, 900 Kbps, 0,83GB

süre


129 dakika

Ses Kodek: AC3


Audio Coding 3 (AC3)

Ses Detay


384 Kbps, 6 Kanal, 355 Mb

rarsifresi


filmbol.org

Editör Puanı


6,9

Genislik Yukseklik


1280x534

sürüm


x264 | 720P


Film Detayları

Jack Sparrow, ölümsüzlük ile cezalandırılmış bir adam ve onun ordusundan kaçarken, bir yandan da poseidon'un kılıcını aramaktadır ve maceralar yine onun peşini bırakmaz. Tabii ölümsüz adamlar da.
Karayip Korsanları 5: Salazar'ın İntikamı (Pirates of the Caribbean 5: Dead Men Tell No Tales) Filmi İmdb'den 220.000 kişi tarafından oylandı ve 6,6 puan aldı. Bu film için editör puanı 6,9 olarak belirlendi. İyi Seyirler!


Teknik Detaylar

Kod:
General
Complete name                            : Pirates.Of.The.Caribbean.Dead.Men.Tell.No.Tales.2017.720P.BLURAY.x264.TR.Filmbol.mkv
Format                                   : Matroska
Format version                           : Version 4 / Version 2
File size                                : 1.16 GiB
Duration                                 : 2 h 9 min
Overall bit rate                         : 1 285 kb/s
Movie name                               : Pirates of the Caribbean 5 (2017) / 720P / Filmbol.org
Encoded date                             : UTC 2018-08-31 16:39:06
Writing application                      : mkvmerge v15.0.0 ('Duel with the Devil') 64-bit
Writing library                          : libebml v1.3.5 + libmatroska v1.4.7

Video
ID                                       : 1
Format                                   : AVC
Format/Info                              : Advanced Video Codec
Format profile                           : High@L4.1
Format settings                          : CABAC / 4 Ref Frames
Format settings, CABAC                   : Yes
Format settings, ReFrames                : 4 frames
Codec ID                                 : V_MPEG4/ISO/AVC
Duration                                 : 2 h 9 min
Bit rate                                 : 900 kb/s
Width                                    : 1 280 pixels
Height                                   : 534 pixels
Display aspect ratio                     : 2.40:1
Original display aspect ratio            : 2.40:1
Frame rate mode                          : Constant
Frame rate                               : 23.976 (24000/1001) FPS
Color space                              : YUV
Chroma subsampling                       : 4:2:0
Bit depth                                : 8 bits
Scan type                                : Progressive
Bits/(Pixel*Frame)                       : 0.055
Stream size                              : 831 MiB (70%)
Title                                    : 720P - Filmbol.org
Writing library                          : x264 core 148
Default                                  : Yes
Forced                                   : No

Audio
ID                                       : 2
Format                                   : AC-3
Format/Info                              : Audio Coding 3
Codec ID                                 : A_AC3
Duration                                 : 2 h 9 min
Bit rate mode                            : Constant
Bit rate                                 : 384 kb/s
Channel(s)                               : 6 channels
Channel positions                        : Front: L C R, Side: L R, LFE
Sampling rate                            : 48.0 kHz
Frame rate                               : 31.250 FPS (1536 SPF)
Bit depth                                : 16 bits
Compression mode                         : Lossy
Stream size                              : 355 MiB (30%)
Title                                    : Türkçe - Filmbol.org
Language                                 : Turkish
Service kind                             : Complete Main
Default                                  : Yes
Forced                                   : Yes


Film Detayları


Karayip Korsanlari 5

Karayip Korsanlari 5

Karayip Korsanlari 5

Karayip Korsanlari 5

Karayip Korsanlari 5


Film Fragmanı


Film Detayları

Mini 720P İndir


LetsUpload ile indir


Mega linki şuan da gizli. Kullanıma açmak için konuya yorum yapın ve ardından sayfayı yenileyin. Ayrıca bu linki açtığınızda reklamsız olarak erişebileceğinizi unutmayın.

Mega


f0je
 
Cevapla
#2
İnşallah kalitesi iyidir.
 
Cevapla
#3
Aksi belirtilmedikçe kalitede sıkıntı görmedim Smile
 
Cevapla
#4
Siteyi bugün keşfetmeme rağmen aşırı beğendim. Umarım bu şekilde devam eder.
 
Cevapla
#5
kalite iyilestirilebilr :
ℱİℒİBOL
 
Cevapla
#6
s.a cümleten
 
Cevapla
#7
###
 
Cevapla
#8
Çok güzel bir film
 
Cevapla
#9
sadsadasdassadsa
 
Cevapla
#10
Filmin Yayınlanma Tarihi: 2008 
gasgsagsa5111111111111111111111 Tongue Tongue Tongue Tongue Tongue
 
Cevapla
  


Konu ile Alakalı Benzer Konular
Konular Yazar Yorumlar Okunma Son Yorum
Filmin Yayınlanma Tarihi: 2011 Harry Potter ve Ölüm Yadigarları: Bölüm 2 (2011) Türkçe Dublaj BLURAY m720P İndi BroserBros 10 656 , Saat: 17:54
Son Yorum: mhmt_dursun
Filmin Yayınlanma Tarihi: 2010 Harry Potter ve Ölüm Yadigarları: Bölüm 1 (2010) Türkçe Dublaj BLURAY m720P İndir BroserBros 12 397 , Saat: 17:53
Son Yorum: mhmt_dursun
Filmin Yayınlanma Tarihi: 2001 Harry Potter ve Felsefe Taşı (2001) Türkçe Dublaj BLURAY m720P İndir BroserBros 15 2,187 16-01-2020, Saat: 19:06
Son Yorum: pepecik
Filmin Yayınlanma Tarihi: 2005 Harry Potter ve Ateş Kadehi (Goblet of Fire) Türkçe Dublaj BLURAY m720P İndir BroserBros 12 714 12-01-2020, Saat: 16:42
Son Yorum: gujul
Filmin Yayınlanma Tarihi: 2019 Godzilla 2: Canavarlar Kralı (King of the Monsters) Türkçe Dublaj BLURAY m720P İndir BroserBros 9 557 12-01-2020, Saat: 11:49
Son Yorum: Ahmet34

Hızlı Menü:


Browsing: 4 Ziyaretçi