Hoşgeldin, Ziyaretçi: Giriş Yap Üye Ol


Konuyu Oyla:
  • Derecelendirme: 0/5 - 0 oy
  • 1
  • 2
  • 3
  • 4
  • 5
Title: Karayip Korsanları :3 (Pirates of Caribbean :3) Türkçe Dublaj m720P İndir
Gösterim Stili
#1
Filmin Yayınlanma Tarihi: 2007 

indirme türü


Bulut + Premium

vizyon tarihi


25 Mayıs 2007

Boyutlar


1,64

diller


[TR]

altyazilar


Yok [Eklenebilir]

Video Format: Mkv


Matroska (.MKV)

Video Detay


MPEG-4, 797 Kbps, 0,90 GB

imdb puanı


7,1 / 10,0 / 550,000

süre


169 dakika

Ses Kodek: AC3


Audio Coding 3 (AC3)

Ses Detay


640 Kbps, 6 Kanal, 728 Mb

rarsifresi


filmbol.org

Editör Puanı


7,8

Genislik Yukseklik


1280x528

sürüm


x264 | 720P


Film Detayları

Jack Sparrow, ölüm mekanından dostlarının yardımı ile kurtulmuştur ancak, bu sefer karşılarına Davy Jones ve Lord Cutler Beckett çıkmıştır. Beckett, gizli bir anlaşma yapmıştır. Bu anlaşmaya göre Karayip Korsanlarının sonu yaklaşmaktadır. Jack, tüm dostlarını toplayacaktır ancak onları da ihanet ve tehlike beklemektedir.

Karayip Korsanları 3: Dünyanın Sonu (2007) (Pirates of the Caribbean 3: At World's End) Filmi İmdb'den 550.000 kişi tarafından oylandı ve 7,1 puan aldı. Bu film için editör puanı 7,8 olarak belirlendi. İyi Seyirler!


Teknik Detaylar
Kod:
General
Complete name                            : Pirates.of.the.Caribbean.At.Worlds.End.2007.720P.BLURAY.x264.TR.Filmbol.mkv
Format                                   : Matroska
Format version                           : Version 4 / Version 2
File size                                : 1.64 GiB
Duration                                 : 2 h 48 min
Overall bit rate                         : 1 393 kb/s
Movie name                               : Pirates of the Caribbean 3 (2007) / 720P / Filmbol.org
Encoded date                             : UTC 2018-08-31 15:53:32
Writing application                      : mkvmerge v15.0.0 ('Duel with the Devil') 64-bit
Writing library                          : libebml v1.3.5 + libmatroska v1.4.7

Video
ID                                       : 1
Format                                   : AVC
Format/Info                              : Advanced Video Codec
Format profile                           : High@L4
Format settings                          : CABAC / 7 Ref Frames
Format settings, CABAC                   : Yes
Format settings, ReFrames                : 7 frames
Codec ID                                 : V_MPEG4/ISO/AVC
Duration                                 : 2 h 39 min
Bit rate                                 : 797 kb/s
Width                                    : 1 280 pixels
Height                                   : 528 pixels
Display aspect ratio                     : 2.40:1
Frame rate mode                          : Constant
Frame rate                               : 23.976 (24000/1001) FPS
Color space                              : YUV
Chroma subsampling                       : 4:2:0
Bit depth                                : 8 bits
Scan type                                : Progressive
Bits/(Pixel*Frame)                       : 0.049
Stream size                              : 907 MiB (54%)
Title                                    : 720P - Filmbol.org
Writing library                          : x264 core 129 r2245 bc13772
EDefault                                  : Yes
Forced                                   : No

Audio
ID                                       : 2
Format                                   : AC-3
Format/Info                              : Audio Coding 3
Codec ID                                 : A_AC3
Duration                                 : 2 h 48 min
Bit rate mode                            : Constant
Bit rate                                 : 640 kb/s
Channel(s)                               : 6 channels
Channel positions                        : Front: L C R, Side: L R, LFE
Sampling rate                            : 48.0 kHz
Frame rate                               : 31.250 FPS (1536 SPF)
Bit depth                                : 16 bits
Compression mode                         : Lossy
Stream size                              : 773 MiB (46%)
Title                                    : Türkçe - Filmbol.org
Language                                 : Turkish
Service kind                             : Complete Main
Default                                  : Yes
Forced                                   : Yes




Film Detayları


Karayip Korsanlari 3

Karayip Korsanlari 3

Karayip Korsanlari 3

Karayip Korsanlari 3

Karayip Korsanlari 3


Film Fragmanı


Film Detayları

Mini 720P İndir


Mega linki şuan da gizli. Kullanıma açmak için konuya yorum yapın ve ardından sayfayı yenileyin. Ayrıca bu linki açtığınızda reklamsız olarak erişebileceğinizi unutmayın.

Mega


Uptobox ile indir

CloudRu ile indir

 
Cevapla
#2
güzel film
 
Cevapla
#3
serinin e iyi 2. filmi
 
Cevapla
#4
vfcxvbvc
 
Cevapla
  


Konu ile Alakalı Benzer Konular
Konular Yazar Yorumlar Okunma Son Yorum
Filmin Yayınlanma Tarihi: 2003 Karayip Korsanları: 1 (Pirates of the Caribbean: 1) Türkçe Dublaj m720P İndir BroserBros 8 5,107 27-01-2020, Saat: 13:31
Son Yorum: mertdemirefsanesi
Filmin Yayınlanma Tarihi: 2002 Harry Potter ve Sırlar Odası (Chamber of Secrets) Türkçe Dublaj BLURAY m720P İndir BroserBros 18 1,431 27-01-2020, Saat: 01:25
Son Yorum: Adrian69
Filmin Yayınlanma Tarihi: 2017 Karayip Korsanları :5 (Pirates Of Caribbean :5) Türkçe Dublaj m720P İndir DRMOV 36 2,915 25-01-2020, Saat: 18:33
Son Yorum: nvz
Filmin Yayınlanma Tarihi: 2011 Harry Potter ve Ölüm Yadigarları: Bölüm 2 (2011) Türkçe Dublaj BLURAY m720P İndi BroserBros 10 677 21-01-2020, Saat: 17:54
Son Yorum: mhmt_dursun
Filmin Yayınlanma Tarihi: 2010 Harry Potter ve Ölüm Yadigarları: Bölüm 1 (2010) Türkçe Dublaj BLURAY m720P İndir BroserBros 12 422 21-01-2020, Saat: 17:53
Son Yorum: mhmt_dursun

Hızlı Menü:


Browsing: 3 Ziyaretçi